  0
SECTION
  2
HEADER
  9
$ACADVER
  1
AC1015
  9
$ACADMAINTVER
 70
     6
  9
$DWGCODEPAGE
  3
ANSI_1252
  9
$INSBASE
 10
0.0
 20
0.0
 30
0.0
  9
$EXTMIN
 10
0.0
 20
0.0
 30
0.0
  9
$EXTMAX
 10
297.0
 20
210.0
 30
0.0
  9
$LIMMIN
 10
0.0
 20
0.0
  9
$LIMMAX
 10
297.0
 20
210.0
  9
$ORTHOMODE
 70
     0
  9
$REGENMODE
 70
     1
  9
$FILLMODE
 70
     1
  9
$QTEXTMODE
 70
     0
  9
$MIRRTEXT
 70
     1
  9
$LTSCALE
 40
1.0
  9
$ATTMODE
 70
     1
  9
$TEXTSIZE
 40
3.5
  9
$TRACEWID
 40
1.0
  9
$TEXTSTYLE
  7
Standard
  9
$CLAYER
  8
0
  9
$CELTYPE
  6
ByLayer
  9
$CECOLOR
 62
   256
  9
$CELTSCALE
 40
1.0
  9
$DISPSILH
 70
     0
  9
$DIMSCALE
 40
1.0
  9
$DIMASZ
 40
3.302
  9
$DIMEXO
 40
1.0
  9
$DIMDLI
 40
3.75
  9
$DIMRND
 40
0.0
  9
$DIMDLE
 40
0.0
  9
$DIMEXE
 40
1.0
  9
$DIMTP
 40
0.0
  9
$DIMTM
 40
0.0
  9
$DIMTXT
 40
3.5
  9
$DIMCEN
 40
2.5
  9
$DIMTSZ
 40
0.0
  9
$DIMTOL
 70
     0
  9
$DIMLIM
 70
     0
  9
$DIMTIH
 70
     1
  9
$DIMTOH
 70
     1
  9
$DIMSE1
 70
     0
  9
$DIMSE2
 70
     0
  9
$DIMTAD
 70
     1
  9
$DIMZIN
 70
     1
  9
$DIMBLK
  1

  9
$DIMASO
 70
     1
  9
$DIMSHO
 70
     1
  9
$DIMPOST
  1

  9
$DIMAPOST
  1

  9
$DIMALT
 70
     0
  9
$DIMALTD
 70
     3
  9
$DIMALTF
 40
0.0393700787
  9
$DIMLFAC
 40
1.0
  9
$DIMTOFL
 70
     1
  9
$DIMTVP
 40
0.0
  9
$DIMTIX
 70
     0
  9
$DIMSOXD
 70
     0
  9
$DIMSAH
 70
     0
  9
$DIMBLK1
  1

  9
$DIMBLK2
  1

  9
$DIMSTYLE
  2
ISO-25
  9
$DIMCLRD
 70
     0
  9
$DIMCLRE
 70
     0
  9
$DIMCLRT
 70
     0
  9
$DIMTFAC
 40
1.0
  9
$DIMGAP
 40
1.524
  9
$DIMJUST
 70
     0
  9
$DIMSD1
 70
     0
  9
$DIMSD2
 70
     0
  9
$DIMTOLJ
 70
     0
  9
$DIMTZIN
 70
     1
  9
$DIMALTZ
 70
     0
  9
$DIMALTTZ
 70
     0
  9
$DIMUPT
 70
     0
  9
$DIMDEC
 70
     2
  9
$DIMTDEC
 70
     2
  9
$DIMALTU
 70
     2
  9
$DIMALTTD
 70
     3
  9
$DIMTXSTY
  7
Standard
  9
$DIMAUNIT
 70
     0
  9
$DIMADEC
 70
     2
  9
$DIMALTRND
 40
0.0
  9
$DIMAZIN
 70
     0
  9
$DIMDSEP
 70
    44
  9
$DIMATFIT
 70
     3
  9
$DIMFRAC
 70
     0
  9
$DIMLDRBLK
  1

  9
$DIMLUNIT
 70
     2
  9
$DIMLWD
 70
    -2
  9
$DIMLWE
 70
    -2
  9
$DIMTMOVE
 70
     0
  9
$LUNITS
 70
     2
  9
$LUPREC
 70
     2
  9
$SKETCHINC
 40
1.0
  9
$FILLETRAD
 40
10.0
  9
$AUNITS
 70
     0
  9
$AUPREC
 70
     2
  9
$MENU
  1
.
  9
$ELEVATION
 40
0.0
  9
$PELEVATION
 40
0.0
  9
$THICKNESS
 40
0.0
  9
$LIMCHECK
 70
     0
  9
$CHAMFERA
 40
0.0
  9
$CHAMFERB
 40
0.0
  9
$CHAMFERC
 40
0.0
  9
$CHAMFERD
 40
0.0
  9
$SKPOLY
 70
     0
  9
$TDCREATE
 40
2459004.638687338
  9
$TDUCREATE
 40
2459004.305354005
  9
$TDUPDATE
 40
2459004.638689954
  9
$TDUUPDATE
 40
2459004.30535662
  9
$TDINDWG
 40
0.0000000116
  9
$TDUSRTIMER
 40
0.0000000116
  9
$USRTIMER
 70
     1
  9
$ANGBASE
 50
0.0
  9
$ANGDIR
 70
     0
  9
$PDMODE
 70
     0
  9
$PDSIZE
 40
-1.0
  9
$PLINEWID
 40
0.0
  9
$SPLFRAME
 70
     0
  9
$SPLINETYPE
 70
     6
  9
$SPLINESEGS
 70
     8
  9
$HANDSEED
  5
400
  9
$SURFTAB1
 70
     6
  9
$SURFTAB2
 70
     6
  9
$SURFTYPE
 70
     6
  9
$SURFU
 70
     6
  9
$SURFV
 70
     6
  9
$UCSBASE
  2

  9
$UCSNAME
  2

  9
$UCSORG
 10
0.0
 20
0.0
 30
0.0
  9
$UCSXDIR
 10
1.0
 20
0.0
 30
0.0
  9
$UCSYDIR
 10
0.0
 20
1.0
 30
0.0
  9
$UCSORTHOREF
  2

  9
$UCSORTHOVIEW
 70
     0
  9
$UCSORGTOP
 10
0.0
 20
0.0
 30
0.0
  9
$UCSORGBOTTOM
 10
0.0
 20
0.0
 30
0.0
  9
$UCSORGLEFT
 10
0.0
 20
0.0
 30
0.0
  9
$UCSORGRIGHT
 10
0.0
 20
0.0
 30
0.0
  9
$UCSORGFRONT
 10
0.0
 20
0.0
 30
0.0
  9
$UCSORGBACK
 10
0.0
 20
0.0
 30
0.0
  9
$PUCSBASE
  2

  9
$PUCSNAME
  2

  9
$PUCSORG
 10
0.0
 20
0.0
 30
0.0
  9
$PUCSXDIR
 10
1.0
 20
0.0
 30
0.0
  9
$PUCSYDIR
 10
0.0
 20
1.0
 30
0.0
  9
$PUCSORTHOREF
  2

  9
$PUCSORTHOVIEW
 70
     0
  9
$PUCSORGTOP
 10
0.0
 20
0.0
 30
0.0
  9
$PUCSORGBOTTOM
 10
0.0
 20
0.0
 30
0.0
  9
$PUCSORGLEFT
 10
0.0
 20
0.0
 30
0.0
  9
$PUCSORGRIGHT
 10
0.0
 20
0.0
 30
0.0
  9
$PUCSORGFRONT
 10
0.0
 20
0.0
 30
0.0
  9
$PUCSORGBACK
 10
0.0
 20
0.0
 30
0.0
  9
$USERI1
 70
     0
  9
$USERI2
 70
     0
  9
$USERI3
 70
     0
  9
$USERI4
 70
     0
  9
$USERI5
 70
     0
  9
$USERR1
 40
0.0
  9
$USERR2
 40
0.0
  9
$USERR3
 40
0.0
  9
$USERR4
 40
0.0
  9
$USERR5
 40
0.0
  9
$WORLDVIEW
 70
     1
  9
$SHADEDGE
 70
     3
  9
$SHADEDIF
 70
    70
  9
$TILEMODE
 70
     1
  9
$MAXACTVP
 70
    64
  9
$PINSBASE
 10
0.0
 20
0.0
 30
0.0
  9
$PLIMCHECK
 70
     0
  9
$PEXTMIN
 10
1.0000000000E+20
 20
1.0000000000E+20
 30
1.0000000000E+20
  9
$PEXTMAX
 10
-1.0000000000E+20
 20
-1.0000000000E+20
 30
-1.0000000000E+20
  9
$PLIMMIN
 10
0.0
 20
0.0
  9
$PLIMMAX
 10
420.0
 20
297.0
  9
$UNITMODE
 70
     0
  9
$VISRETAIN
 70
     1
  9
$PLINEGEN
 70
     0
  9
$PSLTSCALE
 70
     1
  9
$TREEDEPTH
 70
  3020
  9
$CMLSTYLE
  2
Standard
  9
$CMLJUST
 70
     0
  9
$CMLSCALE
 40
20.0
  9
$PROXYGRAPHICS
 70
     1
  9
$MEASUREMENT
 70
     1
  9
$CELWEIGHT
370
    -1
  9
$ENDCAPS
280
     0
  9
$JOINSTYLE
280
     0
  9
$LWDISPLAY
290
     1
  9
$INSUNITS
 70
     4
  9
$HYPERLINKBASE
  1

  9
$STYLESHEET
  1

  9
$XEDIT
290
     1
  9
$CEPSNTYPE
380
     0
  9
$PSTYLEMODE
290
     1
  9
$FINGERPRINTGUID
  2
{1960CC26-3114-4674-957A-1B96F3059A76}
  9
$VERSIONGUID
  2
{FAEB1C32-E019-11D5-929B-00C0DF256EC4}
  9
$EXTNAMES
290
     1
  9
$PSVPSCALE
 40
0.0
  9
$OLESTARTUP
290
     0
  0
ENDSEC
  0
SECTION
  2
CLASSES
  0
CLASS
  1
ACDBDICTIONARYWDFLT
  2
AcDbDictionaryWithDefault
  3
ObjectDBX Classes
 90
        0
280
     0
281
     0
  0
CLASS
  1
VISUALSTYLE
  2
AcDbVisualStyle
  3
ObjectDBX Classes
 90
     4095
280
     0
281
     0
  0
CLASS
  1
MATERIAL
  2
AcDbMaterial
  3
ObjectDBX Classes
 90
     1153
280
     0
281
     0
  0
CLASS
  1
SCALE
  2
AcDbScale
  3
ObjectDBX Classes
 90
     1153
280
     0
281
     0
  0
CLASS
  1
TABLESTYLE
  2
AcDbTableStyle
  3
ObjectDBX Classes
 90
     4095
280
     0
281
     0
  0
CLASS
  1
MLEADERSTYLE
  2
AcDbMLeaderStyle
  3
ACDB_MLEADERSTYLE_CLASS
 90
     4095
280
     0
281
     0
  0
CLASS
  1
SUN
  2
AcDbSun
  3
SCENEOE
 90
     1153
280
     0
281
     0
  0
CLASS
  1
ACDBPLACEHOLDER
  2
AcDbPlaceHolder
  3
ObjectDBX Classes
 90
        0
280
     0
281
     0
  0
CLASS
  1
LAYOUT
  2
AcDbLayout
  3
ObjectDBX Classes
 90
        0
280
     0
281
     0
  0
ENDSEC
  0
SECTION
  2
TABLES
  0
TABLE
  2
VPORT
  5
8
330
0
100
AcDbSymbolTable
 70
     1
  0
VPORT
  5
29
330
8
100
AcDbSymbolTableRecord
100
AcDbViewportTableRecord
  2
*Active
 70
     0
 10
0.0
 20
0.0
 11
1.0
 21
1.0
 12
148.5
 22
105.0
 13
0.0
 23
0.0
 14
10.0
 24
10.0
 15
10.0
 25
10.0
 16
0.0
 26
0.0
 36
1.0
 17
0.0
 27
0.0
 37
0.0
 40
210.0
 41
1.4142857143
 42
50.0
 43
0.0
 44
0.0
 50
0.0
 51
0.0
 71
     0
 72
  2000
 73
     1
 74
     3
 75
     0
 76
     0
 77
     0
 78
     0
281
     0
 65
     1
110
0.0
120
0.0
130
0.0
111
1.0
121
0.0
131
0.0
112
0.0
122
1.0
132
0.0
 79
     0
146
0.0
  0
ENDTAB
  0
TABLE
  2
LTYPE
  5
5
330
0
100
AcDbSymbolTable
 70
     6
  0
LTYPE
  5
14
330
5
100
AcDbSymbolTableRecord
100
AcDbLinetypeTableRecord
  2
ByBlock
 70
     0
  3

 72
    65
 73
     0
 40
0.0
  0
LTYPE
  5
15
330
5
100
AcDbSymbolTableRecord
100
AcDbLinetypeTableRecord
  2
ByLayer
 70
     0
  3

 72
    65
 73
     0
 40
0.0
  0
LTYPE
  5
16
330
5
100
AcDbSymbolTableRecord
100
AcDbLinetypeTableRecord
  2
Continuous
 70
     0
  3
Solid line
 72
    65
 73
     0
 40
0.0
  0
LTYPE
  5
6E
330
5
100
AcDbSymbolTableRecord
100
AcDbLinetypeTableRecord
  2
HIDDEN
 70
     0
  3
Hidden __ __ __ __ __ __ __ __ __ __ __ __ __ __
 72
    65
 73
     2
 40
1.905
 49
1.27
 74
     0
 49
-0.635
 74
     0
  0
LTYPE
  5
6F
330
5
100
AcDbSymbolTableRecord
100
AcDbLinetypeTableRecord
  2
PHANTOM
 70
     0
  3
Phantom ______  __  __  ______  __  __  ______
 72
    65
 73
     6
 40
12.7
 49
6.35
 74
     0
 49
-1.27
 74
     0
 49
1.27
 74
     0
 49
-1.27
 74
     0
 49
1.27
 74
     0
 49
-1.27
 74
     0
  0
LTYPE
  5
70
330
5
100
AcDbSymbolTableRecord
100
AcDbLinetypeTableRecord
  2
CENTER
 70
     0
  3
Center ____ _ ____ _ ____ _ ____ _ ____ _ ____
 72
    65
 73
     4
 40
10.16
 49
6.35
 74
     0
 49
-1.27
 74
     0
 49
1.27
 74
     0
 49
-1.27
 74
     0
  0
LTYPE
  5
71
330
5
100
AcDbSymbolTableRecord
100
AcDbLinetypeTableRecord
  2
CENTERX2
 70
     0
  3
Center (2x) ________  __  ________  __  _____
 72
    65
 73
     4
 40
20.32
 49
12.7
 74
     0
 49
-2.54
 74
     0
 49
2.54
 74
     0
 49
-2.54
 74
     0
  0
LTYPE
  5
72
330
5
100
AcDbSymbolTableRecord
100
AcDbLinetypeTableRecord
  2
DOT2
 70
     0
  3
Dot (.5x) ........................................
 72
    65
 73
     2
 40
0.635
 49
0.0
 74
     0
 49
-0.635
 74
     0
  0
ENDTAB
  0
TABLE
  2
LAYER
  5
2
330
0
100
AcDbSymbolTable
 70
     2
  0
LAYER
  5
10
330
2
100
AcDbSymbolTableRecord
100
AcDbLayerTableRecord
  2
0
 70
     0
 62
     7
  6
Continuous
370
    -3
390
F
  0
LAYER
  5
73
330
2
100
AcDbSymbolTableRecord
100
AcDbLayerTableRecord
  2
_U+56FE_U+5C42_1
 70
     0
 62
   179
  6
Continuous
370
    -3
390
F
  0
ENDTAB
  0
TABLE
  2
STYLE
  5
3
330
0
100
AcDbSymbolTable
 70
     4
  0
STYLE
  5
11
330
3
100
AcDbSymbolTableRecord
100
AcDbTextStyleTableRecord
  2
Standard
 70
     0
 40
0.0
 41
1.0
 50
0.0
 71
     0
 42
3.5
  3
txt
  4

  0
STYLE
  5
147
330
3
100
AcDbSymbolTableRecord
100
AcDbTextStyleTableRecord
  2
SLDTEXTSTYLE0
 70
     0
 40
0.0
 41
0.75
 50
0.0
 71
     0
 42
3.5
  3
TXT
  4

  0
STYLE
  5
2ED
330
3
100
AcDbSymbolTableRecord
100
AcDbTextStyleTableRecord
  2
SLDTEXTSTYLE1
 70
     0
 40
0.0
 41
0.75
 50
0.0
 71
     0
 42
3.5
  3
TXT
  4
bigfont
  0
STYLE
  5
3FD
330
3
100
AcDbSymbolTableRecord
100
AcDbTextStyleTableRecord
  2
SLDTEXTSTYLE2
 70
     0
 40
0.0
 41
0.6785714286
 50
0.0
 71
     0
 42
3.5
  3
TXT
  4
bigfont
  0
ENDTAB
  0
TABLE
  2
VIEW
  5
6
330
0
100
AcDbSymbolTable
 70
     0
  0
ENDTAB
  0
TABLE
  2
UCS
  5
7
330
0
100
AcDbSymbolTable
 70
     0
  0
ENDTAB
  0
TABLE
  2
APPID
  5
9
330
0
100
AcDbSymbolTable
 70
     1
  0
APPID
  5
12
330
9
100
AcDbSymbolTableRecord
100
AcDbRegAppTableRecord
  2
ACAD
 70
     0
  0
ENDTAB
  0
TABLE
  2
DIMSTYLE
  5
A
330
0
100
AcDbSymbolTable
 70
     7
100
AcDbDimStyleTable
  0
DIMSTYLE
105
27
330
A
100
AcDbSymbolTableRecord
100
AcDbDimStyleTableRecord
  2
ISO-25
 70
     0
 41
2.5
 42
0.625
 43
3.75
 44
1.25
 73
     0
 74
     0
 77
     1
 78
     8
140
2.5
141
2.5
143
0.0393700787
147
0.625
171
     3
172
     1
178
     0
271
     2
272
     2
274
     3
278
    44
283
     0
284
     8
340
11
  0
DIMSTYLE
105
148
102
{ACAD_REACTORS
330
146
102
}
330
A
100
AcDbSymbolTableRecord
100
AcDbDimStyleTableRecord
  2
SLDDIMSTYLE0
 70
     0
 41
3.302
 44
0.0
 45
0.000000001
 73
     0
 74
     0
 77
     1
 78
    12
 79
     3
140
2.5
147
0.625
173
     1
178
     0
271
     2
272
     2
276
     2
284
    12
340
147
  0
DIMSTYLE
105
153
102
{ACAD_REACTORS
330
152
330
2C6
102
}
330
A
100
AcDbSymbolTableRecord
100
AcDbDimStyleTableRecord
  2
SLDDIMSTYLE1
 70
     0
 41
3.302
 44
0.0
 45
0.000000001
 73
     0
 74
     0
 77
     1
 78
    12
 79
     3
140
2.5
147
0.625
172
     1
173
     1
178
     0
271
     2
272
     2
276
     2
284
    12
289
     0
340
147
  0
DIMSTYLE
105
160
102
{ACAD_REACTORS
330
15F
330
2D1
330
2DD
102
}
330
A
100
AcDbSymbolTableRecord
100
AcDbDimStyleTableRecord
  2
SLDDIMSTYLE2
 70
     0
 41
3.302
 44
0.0
 45
0.000000001
 73
     0
 74
     0
 77
     1
 78
     4
 79
     1
140
2.5
147
0.625
172
     1
173
     1
178
     0
271
     2
272
     2
276
     2
284
    12
289
     0
340
147
  0
DIMSTYLE
105
16D
102
{ACAD_REACTORS
330
16C
330
177
330
1EC
102
}
330
A
100
AcDbSymbolTableRecord
100
AcDbDimStyleTableRecord
  2
SLDDIMSTYLE3
 70
     0
 41
3.302
 44
0.0
 45
0.000000001
 73
     0
 74
     0
 77
     1
 78
     4
 79
     1
140
2.5
147
0.625
173
     1
178
     0
271
     2
272
     2
276
     2
284
    12
340
147
  0
DIMSTYLE
105
251
102
{ACAD_REACTORS
330
250
330
25D
330
269
330
275
330
27F
102
}
330
A
100
AcDbSymbolTableRecord
100
AcDbDimStyleTableRecord
  2
SLDDIMSTYLE4
 70
     0
 41
3.302
 44
0.0
 45
0.000000001
 73
     0
 74
     0
 77
     1
 78
     4
 79
     1
140
3.5
147
0.875
172
     1
173
     1
178
     0
271
     2
272
     2
276
     2
284
    12
289
     0
340
147
  0
DIMSTYLE
105
2F0
330
A
100
AcDbSymbolTableRecord
100
AcDbDimStyleTableRecord
  2
SLDDIMSTYLE5
 70
     0
 41
1.016
 44
0.0
 45
0.000000001
146
1.016
147
0.0
173
     1
178
     0
271
     0
272
     0
276
     2
340
11
341
2F1
343
2F1
344
2F1
  0
ENDTAB
  0
TABLE
  2
BLOCK_RECORD
  5
1
330
0
100
AcDbSymbolTable
 70
    30
  0
BLOCK_RECORD
  5
1F
330
1
100
AcDbSymbolTableRecord
100
AcDbBlockTableRecord
  2
*Model_Space
340
22
  0
BLOCK_RECORD
  5
1B
330
1
100
AcDbSymbolTableRecord
100
AcDbBlockTableRecord
  2
*Paper_Space
340
1E
  0
BLOCK_RECORD
  5
23
330
1
100
AcDbSymbolTableRecord
100
AcDbBlockTableRecord
  2
*Paper_Space0
340
26
  0
BLOCK_RECORD
  5
149
330
1
100
AcDbSymbolTableRecord
100
AcDbBlockTableRecord
  2
_D
340
0
  0
BLOCK_RECORD
  5
154
330
1
100
AcDbSymbolTableRecord
100
AcDbBlockTableRecord
  2
_D_1
340
0
  0
BLOCK_RECORD
  5
161
330
1
100
AcDbSymbolTableRecord
100
AcDbBlockTableRecord
  2
_D_2
340
0
  0
BLOCK_RECORD
  5
16E
330
1
100
AcDbSymbolTableRecord
100
AcDbBlockTableRecord
  2
_D_3
340
0
  0
BLOCK_RECORD
  5
178
330
1
100
AcDbSymbolTableRecord
100
AcDbBlockTableRecord
  2
_D_4
340
0
  0
BLOCK_RECORD
  5
181
330
1
100
AcDbSymbolTableRecord
100
AcDbBlockTableRecord
  2
SW_CENTERMARKSYMBOL_0
340
0
102
{BLKREFS
331
18C
102
}
  0
BLOCK_RECORD
  5
18D
330
1
100
AcDbSymbolTableRecord
100
AcDbBlockTableRecord
  2
SW_CENTERMARKSYMBOL_1
340
0
102
{BLKREFS
331
198
102
}
  0
BLOCK_RECORD
  5
199
330
1
100
AcDbSymbolTableRecord
100
AcDbBlockTableRecord
  2
SW_CENTERMARKSYMBOL_2
340
0
102
{BLKREFS
331
1A4
102
}
  0
BLOCK_RECORD
  5
1A5
330
1
100
AcDbSymbolTableRecord
100
AcDbBlockTableRecord
  2
SW_CENTERMARKSYMBOL_3
340
0
102
{BLKREFS
331
1B0
102
}
  0
BLOCK_RECORD
  5
1B1
330
1
100
AcDbSymbolTableRecord
100
AcDbBlockTableRecord
  2
SW_CENTERMARKSYMBOL_4
340
0
102
{BLKREFS
331
1BC
102
}
  0
BLOCK_RECORD
  5
1BD
330
1
100
AcDbSymbolTableRecord
100
AcDbBlockTableRecord
  2
SW_CENTERMARKSYMBOL_5
340
0
102
{BLKREFS
331
1C8
102
}
  0
BLOCK_RECORD
  5
1ED
330
1
100
AcDbSymbolTableRecord
100
AcDbBlockTableRecord
  2
_D_5
340
0
  0
BLOCK_RECORD
  5
252
330
1
100
AcDbSymbolTableRecord
100
AcDbBlockTableRecord
  2
_D_6
340
0
  0
BLOCK_RECORD
  5
25E
330
1
100
AcDbSymbolTableRecord
100
AcDbBlockTableRecord
  2
_D_7
340
0
  0
BLOCK_RECORD
  5
26A
330
1
100
AcDbSymbolTableRecord
100
AcDbBlockTableRecord
  2
_D_8
340
0
  0
BLOCK_RECORD
  5
276
330
1
100
AcDbSymbolTableRecord
100
AcDbBlockTableRecord
  2
_D_9
340
0
  0
BLOCK_RECORD
  5
280
330
1
100
AcDbSymbolTableRecord
100
AcDbBlockTableRecord
  2
_D_10
340
0
  0
BLOCK_RECORD
  5
2C7
330
1
100
AcDbSymbolTableRecord
100
AcDbBlockTableRecord
  2
_D_11
340
0
  0
BLOCK_RECORD
  5
2D2
330
1
100
AcDbSymbolTableRecord
100
AcDbBlockTableRecord
  2
_D_12
340
0
  0
BLOCK_RECORD
  5
2DE
330
1
100
AcDbSymbolTableRecord
100
AcDbBlockTableRecord
  2
_D_13
340
0
  0
BLOCK_RECORD
  5
2EA
330
1
100
AcDbSymbolTableRecord
100
AcDbBlockTableRecord
  2
SW_NOTE_0
340
0
102
{BLKREFS
331
2EF
102
}
  0
BLOCK_RECORD
  5
2F1
330
1
100
AcDbSymbolTableRecord
100
AcDbBlockTableRecord
  2
_DOT
340
0
  0
BLOCK_RECORD
  5
2FA
330
1
100
AcDbSymbolTableRecord
100
AcDbBlockTableRecord
  2
SW_CENTERMARKSYMBOL_6
340
0
102
{BLKREFS
331
305
102
}
  0
BLOCK_RECORD
  5
306
330
1
100
AcDbSymbolTableRecord
100
AcDbBlockTableRecord
  2
SW_CENTERMARKSYMBOL_7
340
0
102
{BLKREFS
331
311
102
}
  0
BLOCK_RECORD
  5
312
330
1
100
AcDbSymbolTableRecord
100
AcDbBlockTableRecord
  2
SW_CENTERMARKSYMBOL_8
340
0
102
{BLKREFS
331
31D
102
}
  0
BLOCK_RECORD
  5
31E
330
1
100
AcDbSymbolTableRecord
100
AcDbBlockTableRecord
  2
SW_CENTERMARKSYMBOL_9
340
0
102
{BLKREFS
331
329
102
}
  0
BLOCK_RECORD
  5
32A
330
1
100
AcDbSymbolTableRecord
100
AcDbBlockTableRecord
  2
SW_CENTERMARKSYMBOL_10
340
0
102
{BLKREFS
331
335
102
}
  0
BLOCK_RECORD
  5
336
330
1
100
AcDbSymbolTableRecord
100
AcDbBlockTableRecord
  2
SW_CENTERMARKSYMBOL_11
340
0
102
{BLKREFS
331
341
102
}
  0
BLOCK_RECORD
  5
3F8
330
1
100
AcDbSymbolTableRecord
100
AcDbBlockTableRecord
  2
SW_NOTE_1
340
0
102
{BLKREFS
331
3FF
102
}
  0
ENDTAB
  0
ENDSEC
  0
SECTION
  2
BLOCKS
  0
BLOCK
  5
20
330
1F
100
AcDbEntity
  8
0
100
AcDbBlockBegin
  2
*Model_Space
 70
     0
 10
0.0
 20
0.0
 30
0.0
  3
*Model_Space
  1

  0
ENDBLK
  5
21
330
1F
100
AcDbEntity
  8
0
100
AcDbBlockEnd
  0
BLOCK
  5
1C
330
1B
100
AcDbEntity
 67
     1
  8
0
100
AcDbBlockBegin
  2
*Paper_Space
 70
     0
 10
0.0
 20
0.0
 30
0.0
  3
*Paper_Space
  1

  0
ENDBLK
  5
1D
330
1B
100
AcDbEntity
 67
     1
  8
0
100
AcDbBlockEnd
  0
BLOCK
  5
24
330
23
100
AcDbEntity
  8
0
100
AcDbBlockBegin
  2
*Paper_Space0
 70
     0
 10
0.0
 20
0.0
 30
0.0
  3
*Paper_Space0
  1

  0
ENDBLK
  5
25
330
23
100
AcDbEntity
  8
0
100
AcDbBlockEnd
  0
BLOCK
  5
14A
330
149
100
AcDbEntity
  8
0
100
AcDbBlockBegin
  2
_D
 70
     0
 10
0.0
 20
0.0
 30
0.0
  3
_D
  1

  0
SOLID
  5
14C
330
149
100
AcDbEntity
  8
0
  6
Continuous
 62
     7
370
    18
100
AcDbTrace
 10
100.5779219865
 20
162.9373634276
 30
0.0
 11
100.0699219865
 21
159.6353634276
 31
0.0
 12
101.0859219865
 22
159.6353634276
 32
0.0
 13
101.0859219865
 23
159.6353634276
 33
0.0
  0
SOLID
  5
14D
330
149
100
AcDbEntity
  8
0
  6
Continuous
 62
     7
370
    18
100
AcDbTrace
 10
100.5779219865
 20
113.864175357
 30
0.0
 11
101.0859219865
 21
117.166175357
 31
0.0
 12
100.0699219865
 22
117.166175357
 32
0.0
 13
100.0699219865
 23
117.166175357
 33
0.0
  0
LINE
  5
14E
330
149
100
AcDbEntity
  8
0
  6
Continuous
 62
     7
370
    18
100
AcDbLine
 10
121.5818326914
 20
162.9373634276
 30
0.0
 11
99.5779219865
 21
162.9373634276
 31
0.0
  0
LINE
  5
14F
330
149
100
AcDbEntity
  8
0
  6
Continuous
 62
     7
370
    18
100
AcDbLine
 10
121.5818326914
 20
113.864175357
 30
0.0
 11
99.5779219865
 21
113.864175357
 31
0.0
  0
LINE
  5
150
330
149
100
AcDbEntity
  8
0
  6
Continuous
 62
     7
370
    18
100
AcDbLine
 10
100.5779219865
 20
162.9373634276
 30
0.0
 11
100.5779219865
 21
113.864175357
 31
0.0
  0
MTEXT
  5
151
330
149
100
AcDbEntity
  8
0
  6
Continuous
 62
     7
370
    18
100
AcDbMText
 10
97.3552524625
 20
134.7541632973
 30
0.0
 40
2.5
 41
0.0
 71
     1
 72
     1
  1
49.07
  7
SLDTEXTSTYLE0
 11
-7.044195017643634E-15
 21
1.0
 31
0.0
 73
     1
 44
1.0
  0
ENDBLK
  5
14B
330
149
100
AcDbEntity
  8
0
100
AcDbBlockEnd
  0
BLOCK
  5
155
330
154
100
AcDbEntity
  8
0
100
AcDbBlockBegin
  2
_D_1
 70
     0
 10
0.0
 20
0.0
 30
0.0
  3
_D_1
  1

  0
SOLID
  5
157
330
154
100
AcDbEntity
  8
0
  6
Continuous
 62
     7
370
    18
100
AcDbTrace
 10
106.0957448979
 20
162.9373634276
 30
0.0
 11
106.6037448979
 21
166.2393634276
 31
0.0
 12
105.5877448979
 22
166.2393634276
 32
0.0
 13
105.5877448979
 23
166.2393634276
 33
0.0
  0
SOLID
  5
158
330
154
100
AcDbEntity
  8
0
  6
Continuous
 62
     7
370
    18
100
AcDbTrace
 10
106.0957448979
 20
156.1874134276
 30
0.0
 11
105.5877448979
 21
152.8854134276
 31
0.0
 12
106.6037448979
 22
152.8854134276
 32
0.0
 13
106.6037448979
 23
152.8854134276
 33
0.0
  0
LINE
  5
159
330
154
100
AcDbEntity
  8
0
  6
Continuous
 62
     7
370
    18
100
AcDbLine
 10
121.5818326914
 20
162.9373634276
 30
0.0
 11
105.0957448979
 21
162.9373634276
 31
0.0
  0
LINE
  5
15A
330
154
100
AcDbEntity
  8
0
  6
Continuous
 62
     7
370
    18
100
AcDbLine
 10
111.0817826893
 20
156.1874134276
 30
0.0
 11
105.0957448979
 21
156.1874134276
 31
0.0
  0
LINE
  5
15B
330
154
100
AcDbEntity
  8
0
  6
Continuous
 62
     7
370
    18
100
AcDbLine
 10
106.0957448979
 20
162.9373634276
 30
0.0
 11
106.0957448979
 21
169.2873634276
 31
0.0
  0
LINE
  5
15C
330
154
100
AcDbEntity
  8
0
  6
Continuous
 62
     7
370
    18
100
AcDbLine
 10
106.0957448979
 20
162.9373634276
 30
0.0
 11
106.0957448979
 21
156.1874134276
 31
0.0
  0
LINE
  5
15D
330
154
100
AcDbEntity
  8
0
  6
Continuous
 62
     7
370
    18
100
AcDbLine
 10
106.0957448979
 20
156.1874134276
 30
0.0
 11
106.0957448979
 21
149.8374134276
 31
0.0
  0
MTEXT
  5
15E
330
154
100
AcDbEntity
  8
0
  6
Continuous
 62
     7
370
    18
100
AcDbMText
 10
102.8730753738
 20
156.1927971887
 30
0.0
 40
2.5
 41
0.0
 71
     1
 72
     1
  1
6.75
  7
SLDTEXTSTYLE0
 11
-7.044195017643634E-15
 21
1.0
 31
0.0
 73
     1
 44
1.0
  0
ENDBLK
  5
156
330
154
100
AcDbEntity
  8
0
100
AcDbBlockEnd
  0
BLOCK
  5
162
330
161
100
AcDbEntity
  8
0
100
AcDbBlockBegin
  2
_D_2
 70
     0
 10
0.0
 20
0.0
 30
0.0
  3
_D_2
  1

  0
SOLID
  5
164
330
161
100
AcDbEntity
  8
0
  6
Continuous
 62
     7
370
    18
100
AcDbTrace
 10
120.8318826914
 20
168.961599156
 30
0.0
 11
117.5298826914
 21
169.469599156
 31
0.0
 12
117.5298826914
 22
168.453599156
 32
0.0
 13
117.5298826914
 23
168.453599156
 33
0.0
  0
SOLID
  5
165
330
161
100
AcDbEntity
  8
0
  6
Continuous
 62
     7
370
    18
100
AcDbTrace
 10
124.3317826914
 20
168.961599156
 30
0.0
 11
127.6337826914
 21
168.453599156
 31
0.0
 12
127.6337826914
 22
169.469599156
 32
0.0
 13
127.6337826914
 23
169.469599156
 33
0.0
  0
LINE
  5
166
330
161
100
AcDbEntity
  8
0
  6
Continuous
 62
     7
370
    18
100
AcDbLine
 10
120.8318826914
 20
162.1874134276
 30
0.0
 11
120.8318826914
 21
169.961599156
 31
0.0
  0
LINE
  5
167
330
161
100
AcDbEntity
  8
0
  6
Continuous
 62
     7
370
    18
100
AcDbLine
 10
124.3317826914
 20
162.1874134276
 30
0.0
 11
124.3317826914
 21
169.961599156
 31
0.0
  0
LINE
  5
168
330
161
100
AcDbEntity
  8
0
  6
Continuous
 62
     7
370
    18
100
AcDbLine
 10
120.8318826914
 20
168.961599156
 30
0.0
 11
114.4818826914
 21
168.961599156
 31
0.0
  0
LINE
  5
169
330
161
100
AcDbEntity
  8
0
  6
Continuous
 62
     7
370
    18
100
AcDbLine
 10
120.8318826914
 20
168.961599156
 30
0.0
 11
124.3317826914
 21
168.961599156
 31
0.0
  0
LINE
  5
16A
330
161
100
AcDbEntity
  8
0
  6
Continuous
 62
     7
370
    18
100
AcDbLine
 10
124.3317826914
 20
168.961599156
 30
0.0
 11
136.9108811515
 21
168.961599156
 31
0.0
  0
MTEXT
  5
16B
330
161
100
AcDbEntity
  8
0
  6
Continuous
 62
     7
370
    18
100
AcDbMText
 10
130.4456035169
 20
172.1842686801
 30
0.0
 40
2.5
 41
0.0
 71
     1
 72
     1
  1
3.50
  7
SLDTEXTSTYLE0
 73
     1
 44
1.0
  0
ENDBLK
  5
163
330
161
100
AcDbEntity
  8
0
100
AcDbBlockEnd
  0
BLOCK
  5
16F
330
16E
100
AcDbEntity
  8
0
100
AcDbBlockBegin
  2
_D_3
 70
     0
 10
0.0
 20
0.0
 30
0.0
  3
_D_3
  1

  0
SOLID
  5
171
330
16E
100
AcDbEntity
  8
0
  6
Continuous
 62
     7
370
    18
100
AcDbTrace
 10
111.0817826893
 20
107.6197754526
 30
0.0
 11
114.3837826893
 21
107.1117754526
 31
0.0
 12
114.3837826893
 22
108.1277754526
 32
0.0
 13
114.3837826893
 23
108.1277754526
 33
0.0
  0
SOLID
  5
172
330
16E
100
AcDbEntity
  8
0
  6
Continuous
 62
     7
370
    18
100
AcDbTrace
 10
184.0805826893
 20
107.6197754526
 30
0.0
 11
180.7785826893
 21
108.1277754526
 31
0.0
 12
180.7785826893
 22
107.1117754526
 32
0.0
 13
180.7785826893
 23
107.1117754526
 33
0.0
  0
LINE
  5
173
330
16E
100
AcDbEntity
  8
0
  6
Continuous
 62
     7
370
    18
100
AcDbLine
 10
111.0817826893
 20
124.4638014595
 30
0.0
 11
111.0817826893
 21
106.6197754526
 31
0.0
  0
LINE
  5
174
330
16E
100
AcDbEntity
  8
0
  6
Continuous
 62
     7
370
    18
100
AcDbLine
 10
184.0805826893
 20
124.2072507069
 30
0.0
 11
184.0805826893
 21
106.6197754526
 31
0.0
  0
LINE
  5
175
330
16E
100
AcDbEntity
  8
0
  6
Continuous
 62
     7
370
    18
100
AcDbLine
 10
111.0817826893
 20
107.6197754526
 30
0.0
 11
184.0805826893
 21
107.6197754526
 31
0.0
  0
MTEXT
  5
176
330
16E
100
AcDbEntity
  8
0
  6
Continuous
 62
     7
370
    18
100
AcDbMText
 10
143.1282664987
 20
110.8424449766
 30
0.0
 40
2.5
 41
0.0
 71
     1
 72
     1
  1
73.00
  7
SLDTEXTSTYLE0
 73
     1
 44
1.0
  0
ENDBLK
  5
170
330
16E
100
AcDbEntity
  8
0
100
AcDbBlockEnd
  0
BLOCK
  5
179
330
178
100
AcDbEntity
  8
0
100
AcDbBlockBegin
  2
_D_4
 70
     0
 10
0.0
 20
0.0
 30
0.0
  3
_D_4
  1

  0
SOLID
  5
17B
330
178
100
AcDbEntity
  8
0
  6
Continuous
 62
     7
370
    18
100
AcDbTrace
 10
195.9502311269
 20
156.1874134276
 30
0.0
 11
195.4422311269
 21
152.8854134276
 31
0.0
 12
196.4582311269
 22
152.8854134276
 32
0.0
 13
196.4582311269
 23
152.8854134276
 33
0.0
  0
SOLID
  5
17C
330
178
100
AcDbEntity
  8
0
  6
Continuous
 62
     7
370
    18
100
AcDbTrace
 10
195.9502311269
 20
119.8914362578
 30
0.0
 11
196.4582311269
 21
123.1934362578
 31
0.0
 12
195.4422311269
 22
123.1934362578
 32
0.0
 13
195.4422311269
 23
123.1934362578
 33
0.0
  0
LINE
  5
17D
330
178
100
AcDbEntity
  8
0
  6
Continuous
 62
     7
370
    18
100
AcDbLine
 10
184.0805826893
 20
156.1874134276
 30
0.0
 11
196.9502311269
 21
156.1874134276
 31
0.0
  0
LINE
  5
17E
330
178
100
AcDbEntity
  8
0
  6
Continuous
 62
     7
370
    18
100
AcDbLine
 10
181.7847151319
 20
119.8914362578
 30
0.0
 11
196.9502311269
 21
119.8914362578
 31
0.0
  0
LINE
  5
17F
330
178
100
AcDbEntity
  8
0
  6
Continuous
 62
     7
370
    18
100
AcDbLine
 10
195.9502311269
 20
156.1874134276
 30
0.0
 11
195.9502311269
 21
119.8914362578
 31
0.0
  0
MTEXT
  5
180
330
178
100
AcDbEntity
  8
0
  6
Continuous
 62
     7
370
    18
100
AcDbMText
 10
192.7275616029
 20
133.6028767099
 30
0.0
 40
2.5
 41
0.0
 71
     1
 72
     1
  1
36.30
  7
SLDTEXTSTYLE0
 11
-7.044195017643634E-15
 21
1.0
 31
0.0
 73
     1
 44
1.0
  0
ENDBLK
  5
17A
330
178
100
AcDbEntity
  8
0
100
AcDbBlockEnd
  0
BLOCK
  5
182
330
181
100
AcDbEntity
  8
0
100
AcDbBlockBegin
  2
SW_CENTERMARKSYMBOL_0
 70
     0
 10
0.0
 20
0.0
 30
0.0
  3
SW_CENTERMARKSYMBOL_0
  1

  0
LINE
  5
184
330
181
100
AcDbEntity
  8
0
  6
Continuous
 62
     0
370
     0
100
AcDbLine
 10
0.0
 20
0.0
 30
0.0
 11
0.0
 21
2.5
 31
0.0
  0
LINE
  5
185
330
181
100
AcDbEntity
  8
0
  6
Continuous
 62
     0
370
     0
100
AcDbLine
 10
0.0
 20
0.0
 30
0.0
 11
-2.5
 21
0.0
 31
0.0
  0
LINE
  5
186
330
181
100
AcDbEntity
  8
0
  6
Continuous
 62
     0
370
     0
100
AcDbLine
 10
0.0
 20
0.0
 30
0.0
 11
0.0
 21
-2.5
 31
0.0
  0
LINE
  5
187
330
181
100
AcDbEntity
  8
0
  6
Continuous
 62
     0
370
     0
100
AcDbLine
 10
0.0
 20
0.0
 30
0.0
 11
2.5
 21
0.0
 31
0.0
  0
LINE
  5
188
330
181
100
AcDbEntity
  8
0
  6
Continuous
 62
     0
370
     0
100
AcDbLine
 10
0.0
 20
2.5
 30
0.0
 11
0.0
 21
3.35
 31
0.0
  0
LINE
  5
189
330
181
100
AcDbEntity
  8
0
  6
Continuous
 62
     0
370
     0
100
AcDbLine
 10
-2.5
 20
0.0
 30
0.0
 11
-3.35
 21
0.0
 31
0.0
  0
LINE
  5
18A
330
181
100
AcDbEntity
  8
0
  6
Continuous
 62
     0
370
     0
100
AcDbLine
 10
0.0
 20
-2.5
 30
0.0
 11
0.0
 21
-3.35
 31
0.0
  0
LINE
  5
18B
330
181
100
AcDbEntity
  8
0
  6
Continuous
 62
     0
370
     0
100
AcDbLine
 10
2.5
 20
0.0
 30
0.0
 11
3.35
 21
0.0
 31
0.0
  0
ENDBLK
  5
183
330
181
100
AcDbEntity
  8
0
100
AcDbBlockEnd
  0
BLOCK
  5
18E
330
18D
100
AcDbEntity
  8
0
100
AcDbBlockBegin
  2
SW_CENTERMARKSYMBOL_1
 70
     0
 10
0.0
 20
0.0
 30
0.0
  3
SW_CENTERMARKSYMBOL_1
  1

  0
LINE
  5
190
330
18D
100
AcDbEntity
  8
0
  6
Continuous
 62
     0
370
     0
100
AcDbLine
 10
0.0
 20
0.0
 30
0.0
 11
0.0
 21
2.5
 31
0.0
  0
LINE
  5
191
330
18D
100
AcDbEntity
  8
0
  6
Continuous
 62
     0
370
     0
100
AcDbLine
 10
0.0
 20
0.0
 30
0.0
 11
-2.5
 21
0.0
 31
0.0
  0
LINE
  5
192
330
18D
100
AcDbEntity
  8
0
  6
Continuous
 62
     0
370
     0
100
AcDbLine
 10
0.0
 20
0.0
 30
0.0
 11
0.0
 21
-2.5
 31
0.0
  0
LINE
  5
193
330
18D
100
AcDbEntity
  8
0
  6
Continuous
 62
     0
370
     0
100
AcDbLine
 10
0.0
 20
0.0
 30
0.0
 11
2.5
 21
0.0
 31
0.0
  0
LINE
  5
194
330
18D
100
AcDbEntity
  8
0
  6
Continuous
 62
     0
370
     0
100
AcDbLine
 10
0.0
 20
2.5
 30
0.0
 11
0.0
 21
3.35
 31
0.0
  0
LINE
  5
195
330
18D
100
AcDbEntity
  8
0
  6
Continuous
 62
     0
370
     0
100
AcDbLine
 10
-2.5
 20
0.0
 30
0.0
 11
-3.35
 21
0.0
 31
0.0
  0
LINE
  5
196
330
18D
100
AcDbEntity
  8
0
  6
Continuous
 62
     0
370
     0
100
AcDbLine
 10
0.0
 20
-2.5
 30
0.0
 11
0.0
 21
-3.35
 31
0.0
  0
LINE
  5
197
330
18D
100
AcDbEntity
  8
0
  6
Continuous
 62
     0
370
     0
100
AcDbLine
 10
2.5
 20
0.0
 30
0.0
 11
3.35
 21
0.0
 31
0.0
  0
ENDBLK
  5
18F
330
18D
100
AcDbEntity
  8
0
100
AcDbBlockEnd
  0
BLOCK
  5
19A
330
199
100
AcDbEntity
  8
0
100
AcDbBlockBegin
  2
SW_CENTERMARKSYMBOL_2
 70
     0
 10
0.0
 20
0.0
 30
0.0
  3
SW_CENTERMARKSYMBOL_2
  1

  0
LINE
  5
19C
330
199
100
AcDbEntity
  8
0
  6
Continuous
 62
     0
370
     0
100
AcDbLine
 10
0.0
 20
0.0
 30
0.0
 11
0.0
 21
2.5
 31
0.0
  0
LINE
  5
19D
330
199
100
AcDbEntity
  8
0
  6
Continuous
 62
     0
370
     0
100
AcDbLine
 10
0.0
 20
0.0
 30
0.0
 11
-2.5
 21
0.0
 31
0.0
  0
LINE
  5
19E
330
199
100
AcDbEntity
  8
0
  6
Continuous
 62
     0
370
     0
100
AcDbLine
 10
0.0
 20
0.0
 30
0.0
 11
0.0
 21
-2.5
 31
0.0
  0
LINE
  5
19F
330
199
100
AcDbEntity
  8
0
  6
Continuous
 62
     0
370
     0
100
AcDbLine
 10
0.0
 20
0.0
 30
0.0
 11
2.5
 21
0.0
 31
0.0
  0
LINE
  5
1A0
330
199
100
AcDbEntity
  8
0
  6
Continuous
 62
     0
370
     0
100
AcDbLine
 10
0.0
 20
2.5
 30
0.0
 11
0.0
 21
3.35
 31
0.0
  0
LINE
  5
1A1
330
199
100
AcDbEntity
  8
0
  6
Continuous
 62
     0
370
     0
100
AcDbLine
 10
-2.5
 20
0.0
 30
0.0
 11
-3.35
 21
0.0
 31
0.0
  0
LINE
  5
1A2
330
199
100
AcDbEntity
  8
0
  6
Continuous
 62
     0
370
     0
100
AcDbLine
 10
0.0
 20
-2.5
 30
0.0
 11
0.0
 21
-3.35
 31
0.0
  0
LINE
  5
1A3
330
199
100
AcDbEntity
  8
0
  6
Continuous
 62
     0
370
     0
100
AcDbLine
 10
2.5
 20
0.0
 30
0.0
 11
3.35
 21
0.0
 31
0.0
  0
ENDBLK
  5
19B
330
199
100
AcDbEntity
  8
0
100
AcDbBlockEnd
  0
BLOCK
  5
1A6
330
1A5
100
AcDbEntity
  8
0
100
AcDbBlockBegin
  2
SW_CENTERMARKSYMBOL_3
 70
     0
 10
0.0
 20
0.0
 30
0.0
  3
SW_CENTERMARKSYMBOL_3
  1

  0
LINE
  5
1A8
330
1A5
100
AcDbEntity
  8
0
  6
Continuous
 62
     0
370
     0
100
AcDbLine
 10
0.0
 20
0.0
 30
0.0
 11
0.0
 21
2.5
 31
0.0
  0
LINE
  5
1A9
330
1A5
100
AcDbEntity
  8
0
  6
Continuous
 62
     0
370
     0
100
AcDbLine
 10
0.0
 20
0.0
 30
0.0
 11
-2.5
 21
0.0
 31
0.0
  0
LINE
  5
1AA
330
1A5
100
AcDbEntity
  8
0
  6
Continuous
 62
     0
370
     0
100
AcDbLine
 10
0.0
 20
0.0
 30
0.0
 11
0.0
 21
-2.5
 31
0.0
  0
LINE
  5
1AB
330
1A5
100
AcDbEntity
  8
0
  6
Continuous
 62
     0
370
     0
100
AcDbLine
 10
0.0
 20
0.0
 30
0.0
 11
2.5
 21
0.0
 31
0.0
  0
LINE
  5
1AC
330
1A5
100
AcDbEntity
  8
0
  6
Continuous
 62
     0
370
     0
100
AcDbLine
 10
0.0
 20
2.5
 30
0.0
 11
0.0
 21
3.35
 31
0.0
  0
LINE
  5
1AD
330
1A5
100
AcDbEntity
  8
0
  6
Continuous
 62
     0
370
     0
100
AcDbLine
 10
-2.5
 20
0.0
 30
0.0
 11
-3.35
 21
0.0
 31
0.0
  0
LINE
  5
1AE
330
1A5
100
AcDbEntity
  8
0
  6
Continuous
 62
     0
370
     0
100
AcDbLine
 10
0.0
 20
-2.5
 30
0.0
 11
0.0
 21
-3.35
 31
0.0
  0
LINE
  5
1AF
330
1A5
100
AcDbEntity
  8
0
  6
Continuous
 62
     0
370
     0
100
AcDbLine
 10
2.5
 20
0.0
 30
0.0
 11
3.35
 21
0.0
 31
0.0
  0
ENDBLK
  5
1A7
330
1A5
100
AcDbEntity
  8
0
100
AcDbBlockEnd
  0
BLOCK
  5
1B2
330
1B1
100
AcDbEntity
  8
0
100
AcDbBlockBegin
  2
SW_CENTERMARKSYMBOL_4
 70
     0
 10
0.0
 20
0.0
 30
0.0
  3
SW_CENTERMARKSYMBOL_4
  1

  0
LINE
  5
1B4
330
1B1
100
AcDbEntity
  8
0
  6
Continuous
 62
     0
370
     0
100
AcDbLine
 10
0.0
 20
0.0
 30
0.0
 11
0.0
 21
2.5
 31
0.0
  0
LINE
  5
1B5
330
1B1
100
AcDbEntity
  8
0
  6
Continuous
 62
     0
370
     0
100
AcDbLine
 10
0.0
 20
0.0
 30
0.0
 11
-2.5
 21
0.0
 31
0.0
  0
LINE
  5
1B6
330
1B1
100
AcDbEntity
  8
0
  6
Continuous
 62
     0
370
     0
100
AcDbLine
 10
0.0
 20
0.0
 30
0.0
 11
0.0
 21
-2.5
 31
0.0
  0
LINE
  5
1B7
330
1B1
100
AcDbEntity
  8
0
  6
Continuous
 62
     0
370
     0
100
AcDbLine
 10
0.0
 20
0.0
 30
0.0
 11
2.5
 21
0.0
 31
0.0
  0
LINE
  5
1B8
330
1B1
100
AcDbEntity
  8
0
  6
Continuous
 62
     0
370
     0
100
AcDbLine
 10
0.0
 20
2.5
 30
0.0
 11
0.0
 21
3.35
 31
0.0
  0
LINE
  5
1B9
330
1B1
100
AcDbEntity
  8
0
  6
Continuous
 62
     0
370
     0
100
AcDbLine
 10
-2.5
 20
0.0
 30
0.0
 11
-3.35
 21
0.0
 31
0.0
  0
LINE
  5
1BA
330
1B1
100
AcDbEntity
  8
0
  6
Continuous
 62
     0
370
     0
100
AcDbLine
 10
0.0
 20
-2.5
 30
0.0
 11
0.0
 21
-3.35
 31
0.0
  0
LINE
  5
1BB
330
1B1
100
AcDbEntity
  8
0
  6
Continuous
 62
     0
370
     0
100
AcDbLine
 10
2.5
 20
0.0
 30
0.0
 11
3.35
 21
0.0
 31
0.0
  0
ENDBLK
  5
1B3
330
1B1
100
AcDbEntity
  8
0
100
AcDbBlockEnd
  0
BLOCK
  5
1BE
330
1BD
100
AcDbEntity
  8
0
100
AcDbBlockBegin
  2
SW_CENTERMARKSYMBOL_5
 70
     0
 10
0.0
 20
0.0
 30
0.0
  3
SW_CENTERMARKSYMBOL_5
  1

  0
LINE
  5
1C0
330
1BD
100
AcDbEntity
  8
0
  6
Continuous
 62
     0
370
     0
100
AcDbLine
 10
0.0
 20
0.0
 30
0.0
 11
0.0
 21
2.5
 31
0.0
  0
LINE
  5
1C1
330
1BD
100
AcDbEntity
  8
0
  6
Continuous
 62
     0
370
     0
100
AcDbLine
 10
0.0
 20
0.0
 30
0.0
 11
-2.5
 21
0.0
 31
0.0
  0
LINE
  5
1C2
330
1BD
100
AcDbEntity
  8
0
  6
Continuous
 62
     0
370
     0
100
AcDbLine
 10
0.0
 20
0.0
 30
0.0
 11
0.0
 21
-2.5
 31
0.0
  0
LINE
  5
1C3
330
1BD
100
AcDbEntity
  8
0
  6
Continuous
 62
     0
370
     0
100
AcDbLine
 10
0.0
 20
0.0
 30
0.0
 11
2.5
 21
0.0
 31
0.0
  0
LINE
  5
1C4
330
1BD
100
AcDbEntity
  8
0
  6
Continuous
 62
     0
370
     0
100
AcDbLine
 10
0.0
 20
2.5
 30
0.0
 11
0.0
 21
3.35
 31
0.0
  0
LINE
  5
1C5
330
1BD
100
AcDbEntity
  8
0
  6
Continuous
 62
     0
370
     0
100
AcDbLine
 10
-2.5
 20
0.0
 30
0.0
 11
-3.35
 21
0.0
 31
0.0
  0
LINE
  5
1C6
330
1BD
100
AcDbEntity
  8
0
  6
Continuous
 62
     0
370
     0
100
AcDbLine
 10
0.0
 20
-2.5
 30
0.0
 11
0.0
 21
-3.35
 31
0.0
  0
LINE
  5
1C7
330
1BD
100
AcDbEntity
  8
0
  6
Continuous
 62
     0
370
     0
100
AcDbLine
 10
2.5
 20
0.0
 30
0.0
 11
3.35
 21
0.0
 31
0.0
  0
ENDBLK
  5
1BF
330
1BD
100
AcDbEntity
  8
0
100
AcDbBlockEnd
  0
BLOCK
  5
1EE
330
1ED
100
AcDbEntity
  8
0
100
AcDbBlockBegin
  2
_D_5
 70
     0
 10
0.0
 20
0.0
 30
0.0
  3
_D_5
  1

  0
SOLID
  5
1F0
330
1ED
100
AcDbEntity
  8
0
  6
Continuous
 62
     7
370
    18
100
AcDbTrace
 10
106.5795826893
 20
92.773542337
 30
0.0
 11
109.8815826893
 21
92.265542337
 31
0.0
 12
109.8815826893
 22
93.281542337
 32
0.0
 13
109.8815826893
 23
93.281542337
 33
0.0
  0
SOLID
  5
1F1
330
1ED
100
AcDbEntity
  8
0
  6
Continuous
 62
     7
370
    18
100
AcDbTrace
 10
187.5805826893
 20
92.7735423369
 30
0.0
 11
184.2785826893
 21
93.2815423369
 31
0.0
 12
184.2785826893
 22
92.2655423369
 32
0.0
 13
184.2785826893
 23
92.2655423369
 33
0.0
  0
LINE
  5
1F2
330
1ED
100
AcDbEntity
  8
0
  6
Continuous
 62
     7
370
    18
100
AcDbLine
 10
106.5795826893
 20
81.3802987587
 30
0.0
 11
106.5795826893
 21
93.773542337
 31
0.0
  0
LINE
  5
1F3
330
1ED
100
AcDbEntity
  8
0
  6
Continuous
 62
     7
370
    18
100
AcDbLine
 10
187.5805826893
 20
82.6802987587
 30
0.0
 11
187.5805826893
 21
93.7735423369
 31
0.0
  0
LINE
  5
1F4
330
1ED
100
AcDbEntity
  8
0
  6
Continuous
 62
     7
370
    18
100
AcDbLine
 10
106.5795826893
 20
92.773542337
 30
0.0
 11
187.5805826893
 21
92.7735423369
 31
0.0
  0
MTEXT
  5
1F5
330
1ED
100
AcDbEntity
  8
0
  6
Continuous
 62
     7
370
    18
100
AcDbMText
 10
142.4000553053
 20
95.996211861
 30
0.0
 40
2.5
 41
0.0
 71
     1
 72
     1
  1
81.00
  7
SLDTEXTSTYLE0
 73
     1
 44
1.0
  0
ENDBLK
  5
1EF
330
1ED
100
AcDbEntity
  8
0
100
AcDbBlockEnd
  0
BLOCK
  5
253
330
252
100
AcDbEntity
  8
0
100
AcDbBlockBegin
  2
_D_6
 70
     0
 10
0.0
 20
0.0
 30
0.0
  3
_D_6
  1

  0
SOLID
  5
255
330
252
100
AcDbEntity
  8
0
  6
Continuous
 62
     7
370
    18
100
AcDbTrace
 10
233.0890283615
 20
104.2679245546
 30
0.0
 11
236.3910283615
 21
103.7599245546
 31
0.0
 12
236.3910283615
 22
104.7759245546
 32
0.0
 13
236.3910283615
 23
104.7759245546
 33
0.0
  0
SOLID
  5
256
330
252
100
AcDbEntity
  8
0
  6
Continuous
 62
     7
370
    18
100
AcDbTrace
 10
231.0890283615
 20
104.2679245546
 30
0.0
 11
227.7870283615
 21
104.7759245546
 31
0.0
 12
227.7870283615
 22
103.7599245546
 32
0.0
 13
227.7870283615
 23
103.7599245546
 33
0.0
  0
LINE
  5
257
330
252
100
AcDbEntity
  8
0
  6
Continuous
 62
     7
370
    18
100
AcDbLine
 10
233.0890283615
 20
112.864175357
 30
0.0
 11
233.0890283615
 21
103.2679245546
 31
0.0
  0
LINE
  5
258
330
252
100
AcDbEntity
  8
0
  6
Continuous
 62
     7
370
    18
100
AcDbLine
 10
231.0890283615
 20
115.6133198135
 30
0.0
 11
231.0890283615
 21
103.2679245546
 31
0.0
  0
LINE
  5
259
330
252
100
AcDbEntity
  8
0
  6
Continuous
 62
     7
370
    18
100
AcDbLine
 10
233.0890283615
 20
104.2679245546
 30
0.0
 11
248.614308093
 21
104.2679245546
 31
0.0
  0
LINE
  5
25A
330
252
100
AcDbEntity
  8
0
  6
Continuous
 62
     7
370
    18
100
AcDbLine
 10
233.0890283615
 20
104.2679245546
 30
0.0
 11
231.0890283615
 21
104.2679245546
 31
0.0
  0
LINE
  5
25B
330
252
100
AcDbEntity
  8
0
  6
Continuous
 62
     7
370
    18
100
AcDbLine
 10
231.0890283615
 20
104.2679245546
 30
0.0
 11
224.7390283615
 21
104.2679245546
 31
0.0
  0
MTEXT
  5
25C
330
252
100
AcDbEntity
  8
0
  6
Continuous
 62
     7
370
    18
100
AcDbMText
 10
239.5629190321
 20
108.7796614691
 30
0.0
 40
3.5
 41
0.0
 71
     1
 72
     1
  1
2.00
  7
SLDTEXTSTYLE0
 73
     1
 44
1.0
  0
ENDBLK
  5
254
330
252
100
AcDbEntity
  8
0
100
AcDbBlockEnd
  0
BLOCK
  5
25F
330
25E
100
AcDbEntity
  8
0
100
AcDbBlockBegin
  2
_D_7
 70
     0
 10
0.0
 20
0.0
 30
0.0
  3
_D_7
  1

  0
SOLID
  5
261
330
25E
100
AcDbEntity
  8
0
  6
Continuous
 62
     7
370
    18
100
AcDbTrace
 10
233.0890283615
 20
95.4060829541
 30
0.0
 11
236.3910283615
 21
94.8980829541
 31
0.0
 12
236.3910283615
 22
95.9140829541
 32
0.0
 13
236.3910283615
 23
95.9140829541
 33
0.0
  0
SOLID
  5
262
330
25E
100
AcDbEntity
  8
0
  6
Continuous
 62
     7
370
    18
100
AcDbTrace
 10
229.7890283615
 20
95.4060829541
 30
0.0
 11
226.4870283615
 21
95.9140829541
 31
0.0
 12
226.4870283615
 22
94.8980829541
 32
0.0
 13
226.4870283615
 23
94.8980829541
 33
0.0
  0
LINE
  5
263
330
25E
100
AcDbEntity
  8
0
  6
Continuous
 62
     7
370
    18
100
AcDbLine
 10
233.0890283615
 20
112.864175357
 30
0.0
 11
233.0890283615
 21
94.4060829541
 31
0.0
  0
LINE
  5
264
330
25E
100
AcDbEntity
  8
0
  6
Continuous
 62
     7
370
    18
100
AcDbLine
 10
229.7890283615
 20
112.864175357
 30
0.0
 11
229.7890283615
 21
94.4060829541
 31
0.0
  0
LINE
  5
265
330
25E
100
AcDbEntity
  8
0
  6
Continuous
 62
     7
370
    18
100
AcDbLine
 10
233.0890283615
 20
95.4060829541
 30
0.0
 11
248.614308093
 21
95.4060829541
 31
0.0
  0
LINE
  5
266
330
25E
100
AcDbEntity
  8
0
  6
Continuous
 62
     7
370
    18
100
AcDbLine
 10
233.0890283615
 20
95.4060829541
 30
0.0
 11
229.7890283615
 21
95.4060829541
 31
0.0
  0
LINE
  5
267
330
25E
100
AcDbEntity
  8
0
  6
Continuous
 62
     7
370
    18
100
AcDbLine
 10
229.7890283615
 20
95.4060829541
 30
0.0
 11
223.4390283615
 21
95.4060829541
 31
0.0
  0
MTEXT
  5
268
330
25E
100
AcDbEntity
  8
0
  6
Continuous
 62
     7
370
    18
100
AcDbMText
 10
239.5629190321
 20
99.9178198687
 30
0.0
 40
3.5
 41
0.0
 71
     1
 72
     1
  1
3.30
  7
SLDTEXTSTYLE0
 73
     1
 44
1.0
  0
ENDBLK
  5
260
330
25E
100
AcDbEntity
  8
0
100
AcDbBlockEnd
  0
BLOCK
  5
26B
330
26A
100
AcDbEntity
  8
0
100
AcDbBlockBegin
  2
_D_8
 70
     0
 10
0.0
 20
0.0
 30
0.0
  3
_D_8
  1

  0
SOLID
  5
26D
330
26A
100
AcDbEntity
  8
0
  6
Continuous
 62
     7
370
    18
100
AcDbTrace
 10
231.0890283615
 20
170.3561076472
 30
0.0
 11
234.3910283615
 21
169.8481076472
 31
0.0
 12
234.3910283615
 22
170.8641076472
 32
0.0
 13
234.3910283615
 23
170.8641076472
 33
0.0
  0
SOLID
  5
26E
330
26A
100
AcDbEntity
  8
0
  6
Continuous
 62
     7
370
    18
100
AcDbTrace
 10
229.7890283615
 20
170.3561076472
 30
0.0
 11
226.4870283615
 21
170.8641076472
 31
0.0
 12
226.4870283615
 22
169.8481076472
 32
0.0
 13
226.4870283615
 23
169.8481076472
 33
0.0
  0
LINE
  5
26F
330
26A
100
AcDbEntity
  8
0
  6
Continuous
 62
     7
370
    18
100
AcDbLine
 10
231.0890283615
 20
162.1874134276
 30
0.0
 11
231.0890283615
 21
171.3561076472
 31
0.0
  0
LINE
  5
270
330
26A
100
AcDbEntity
  8
0
  6
Continuous
 62
     7
370
    18
100
AcDbLine
 10
229.7890283615
 20
163.9373634276
 30
0.0
 11
229.7890283615
 21
171.3561076472
 31
0.0
  0
LINE
  5
271
330
26A
100
AcDbEntity
  8
0
  6
Continuous
 62
     7
370
    18
100
AcDbLine
 10
231.0890283615
 20
170.3561076472
 30
0.0
 11
247.6147228919
 21
170.3561076472
 31
0.0
  0
LINE
  5
272
330
26A
100
AcDbEntity
  8
0
  6
Continuous
 62
     7
370
    18
100
AcDbLine
 10
231.0890283615
 20
170.3561076472
 30
0.0
 11
229.7890283615
 21
170.3561076472
 31
0.0
  0
LINE
  5
273
330
26A
100
AcDbEntity
  8
0
  6
Continuous
 62
     7
370
    18
100
AcDbLine
 10
229.7890283615
 20
170.3561076472
 30
0.0
 11
223.4390283615
 21
170.3561076472
 31
0.0
  0
MTEXT
  5
274
330
26A
100
AcDbEntity
  8
0
  6
Continuous
 62
     7
370
    18
100
AcDbMText
 10
238.563333831
 20
174.8678445618
 30
0.0
 40
3.5
 41
0.0
 71
     1
 72
     1
  1
1.30
  7
SLDTEXTSTYLE0
 73
     1
 44
1.0
  0
ENDBLK
  5
26C
330
26A
100
AcDbEntity
  8
0
100
AcDbBlockEnd
  0
BLOCK
  5
277
330
276
100
AcDbEntity
  8
0
100
AcDbBlockBegin
  2
_D_9
 70
     0
 10
0.0
 20
0.0
 30
0.0
  3
_D_9
  1

  0
SOLID
  5
279
330
276
100
AcDbEntity
  8
0
  6
Continuous
 62
     7
370
    18
100
AcDbTrace
 10
227.7890283615
 20
138.013876904
 30
0.0
 11
224.4870283615
 21
138.521876904
 31
0.0
 12
224.4870283615
 22
137.505876904
 32
0.0
 13
224.4870283615
 23
137.505876904
 33
0.0
  0
SOLID
  5
27A
330
276
100
AcDbEntity
  8
0
  6
Continuous
 62
     7
370
    18
100
AcDbTrace
 10
229.7890283615
 20
138.013876904
 30
0.0
 11
233.0910283615
 21
137.505876904
 31
0.0
 12
233.0910283615
 22
138.521876904
 32
0.0
 13
233.0910283615
 23
138.521876904
 33
0.0
  0
LINE
  5
27B
330
276
100
AcDbEntity
  8
0
  6
Continuous
 62
     7
370
    18
100
AcDbLine
 10
227.7890283615
 20
138.013876904
 30
0.0
 11
210.247065085
 21
138.013876904
 31
0.0
  0
LINE
  5
27C
330
276
100
AcDbEntity
  8
0
  6
Continuous
 62
     7
370
    18
100
AcDbLine
 10
227.7890283615
 20
138.013876904
 30
0.0
 11
229.7890283615
 21
138.013876904
 31
0.0
  0
LINE
  5
27D
330
276
100
AcDbEntity
  8
0
  6
Continuous
 62
     7
370
    18
100
AcDbLine
 10
229.7890283615
 20
138.013876904
 30
0.0
 11
236.1390283615
 21
138.013876904
 31
0.0
  0
MTEXT
  5
27E
330
276
100
AcDbEntity
  8
0
  6
Continuous
 62
     7
370
    18
100
AcDbMText
 10
210.247065085
 20
142.5256138186
 30
0.0
 40
3.5
 41
0.0
 71
     1
 72
     1
  1
2.00
  7
SLDTEXTSTYLE0
 73
     1
 44
1.0
  0
ENDBLK
  5
278
330
276
100
AcDbEntity
  8
0
100
AcDbBlockEnd
  0
BLOCK
  5
281
330
280
100
AcDbEntity
  8
0
100
AcDbBlockBegin
  2
_D_10
 70
     0
 10
0.0
 20
0.0
 30
0.0
  3
_D_10
  1

  0
SOLID
  5
283
330
280
100
AcDbEntity
  8
0
  6
Continuous
 62
     7
370
    18
100
AcDbTrace
 10
229.7890283615
 20
155.0251727911
 30
0.0
 11
233.0910283615
 21
154.5171727911
 31
0.0
 12
233.0910283615
 22
155.5331727911
 32
0.0
 13
233.0910283615
 23
155.5331727911
 33
0.0
  0
SOLID
  5
284
330
280
100
AcDbEntity
  8
0
  6
Continuous
 62
     7
370
    18
100
AcDbTrace
 10
224.1890283615
 20
155.0251727911
 30
0.0
 11
220.8870283615
 21
155.5331727911
 31
0.0
 12
220.8870283615
 22
154.5171727911
 32
0.0
 13
220.8870283615
 23
154.5171727911
 33
0.0
  0
LINE
  5
285
330
280
100
AcDbEntity
  8
0
  6
Continuous
 62
     7
370
    18
100
AcDbLine
 10
224.1890283615
 20
156.2394248427
 30
0.0
 11
224.1890283615
 21
156.0251727911
 31
0.0
  0
LINE
  5
286
330
280
100
AcDbEntity
  8
0
  6
Continuous
 62
     7
370
    18
100
AcDbLine
 10
229.7890283615
 20
155.0251727911
 30
0.0
 11
236.1390283615
 21
155.0251727911
 31
0.0
  0
LINE
  5
287
330
280
100
AcDbEntity
  8
0
  6
Continuous
 62
     7
370
    18
100
AcDbLine
 10
229.7890283615
 20
155.0251727911
 30
0.0
 11
224.1890283615
 21
155.0251727911
 31
0.0
  0
LINE
  5
288
330
280
100
AcDbEntity
  8
0
  6
Continuous
 62
     7
370
    18
100
AcDbLine
 10
224.1890283615
 20
155.0251727911
 30
0.0
 11
210.247065085
 21
155.0251727911
 31
0.0
  0
MTEXT
  5
289
330
280
100
AcDbEntity
  8
0
  6
Continuous
 62
     7
370
    18
100
AcDbMText
 10
210.247065085
 20
159.5369097057
 30
0.0
 40
3.5
 41
0.0
 71
     1
 72
     1
  1
5.60
  7
SLDTEXTSTYLE0
 73
     1
 44
1.0
  0
ENDBLK
  5
282
330
280
100
AcDbEntity
  8
0
100
AcDbBlockEnd
  0
BLOCK
  5
2C8
330
2C7
100
AcDbEntity
  8
0
100
AcDbBlockBegin
  2
_D_11
 70
     0
 10
0.0
 20
0.0
 30
0.0
  3
_D_11
  1

  0
SOLID
  5
2CA
330
2C7
100
AcDbEntity
  8
0
  6
Continuous
 62
     7
370
    18
100
AcDbTrace
 10
148.5616765377
 20
45.8437368265
 30
0.0
 11
148.0536765377
 21
42.5417368265
 31
0.0
 12
149.0696765377
 22
42.5417368265
 32
0.0
 13
149.0696765377
 23
42.5417368265
 33
0.0
  0
SOLID
  5
2CB
330
2C7
100
AcDbEntity
  8
0
  6
Continuous
 62
     7
370
    18
100
AcDbTrace
 10
148.5616765377
 20
57.0000953138
 30
0.0
 11
149.0696765377
 21
60.3020953138
 31
0.0
 12
148.0536765377
 22
60.3020953138
 32
0.0
 13
148.0536765377
 23
60.3020953138
 33
0.0
  0
LINE
  5
2CC
330
2C7
100
AcDbEntity
  8
0
  6
Continuous
 62
     7
370
    18
100
AcDbLine
 10
151.6783826893
 20
45.8437368265
 30
0.0
 11
147.5616765377
 21
45.8437368265
 31
0.0
  0
LINE
  5
2CD
330
2C7
100
AcDbEntity
  8
0
  6
Continuous
 62
     7
370
    18
100
AcDbLine
 10
148.5616765377
 20
45.8437368265
 30
0.0
 11
148.5616765377
 21
39.4937368265
 31
0.0
  0
LINE
  5
2CE
330
2C7
100
AcDbEntity
  8
0
  6
Continuous
 62
     7
370
    18
100
AcDbLine
 10
148.5616765377
 20
45.8437368265
 30
0.0
 11
148.5616765377
 21
57.0000953138
 31
0.0
  0
LINE
  5
2CF
330
2C7
100
AcDbEntity
  8
0
  6
Continuous
 62
     7
370
    18
100
AcDbLine
 10
148.5616765377
 20
57.0000953138
 30
0.0
 11
148.5616765377
 21
63.3500953138
 31
0.0
  0
MTEXT
  5
2D0
330
2C7
100
AcDbEntity
  8
0
  6
Continuous
 62
     7
370
    18
100
AcDbMText
 10
145.3390070137
 20
46.9669057156
 30
0.0
 40
2.5
 41
0.0
 71
     1
 72
     1
  1
11.16
  7
SLDTEXTSTYLE0
 11
6.123233995736766E-17
 21
1.0
 31
0.0
 73
     1
 44
1.0
  0
ENDBLK
  5
2C9
330
2C7
100
AcDbEntity
  8
0
100
AcDbBlockEnd
  0
BLOCK
  5
2D3
330
2D2
100
AcDbEntity
  8
0
100
AcDbBlockBegin
  2
_D_12
 70
     0
 10
0.0
 20
0.0
 30
0.0
  3
_D_12
  1

  0
SOLID
  5
2D5
330
2D2
100
AcDbEntity
  8
0
  6
Continuous
 62
     7
370
    18
100
AcDbTrace
 10
170.9383826893
 20
35.0802183755
 30
0.0
 11
174.2403826893
 21
34.5722183755
 31
0.0
 12
174.2403826893
 22
35.5882183755
 32
0.0
 13
174.2403826893
 23
35.5882183755
 33
0.0
  0
SOLID
  5
2D6
330
2D2
100
AcDbEntity
  8
0
  6
Continuous
 62
     7
370
    18
100
AcDbTrace
 10
152.3383826893
 20
35.0802183755
 30
0.0
 11
149.0363826893
 21
35.5882183755
 31
0.0
 12
149.0363826893
 22
34.5722183755
 32
0.0
 13
149.0363826893
 23
34.5722183755
 33
0.0
  0
LINE
  5
2D7
330
2D2
100
AcDbEntity
  8
0
  6
Continuous
 62
     7
370
    18
100
AcDbLine
 10
170.9383826893
 20
45.1837368265
 30
0.0
 11
170.9383826893
 21
34.0802183755
 31
0.0
  0
LINE
  5
2D8
330
2D2
100
AcDbEntity
  8
0
  6
Continuous
 62
     7
370
    18
100
AcDbLine
 10
152.3383826893
 20
45.1837368265
 30
0.0
 11
152.3383826893
 21
34.0802183755
 31
0.0
  0
LINE
  5
2D9
330
2D2
100
AcDbEntity
  8
0
  6
Continuous
 62
     7
370
    18
100
AcDbLine
 10
170.9383826893
 20
35.0802183755
 30
0.0
 11
177.2883826893
 21
35.0802183755
 31
0.0
  0
LINE
  5
2DA
330
2D2
100
AcDbEntity
  8
0
  6
Continuous
 62
     7
370
    18
100
AcDbLine
 10
170.9383826893
 20
35.0802183755
 30
0.0
 11
152.3383826893
 21
35.0802183755
 31
0.0
  0
LINE
  5
2DB
330
2D2
100
AcDbEntity
  8
0
  6
Continuous
 62
     7
370
    18
100
AcDbLine
 10
152.3383826893
 20
35.0802183755
 30
0.0
 11
145.9883826893
 21
35.0802183755
 31
0.0
  0
MTEXT
  5
2DC
330
2D2
100
AcDbEntity
  8
0
  6
Continuous
 62
     7
370
    18
100
AcDbMText
 10
157.2312781074
 20
38.3028878996
 30
0.0
 40
2.5
 41
0.0
 71
     1
 72
     1
  1
18.60
  7
SLDTEXTSTYLE0
 73
     1
 44
1.0
  0
ENDBLK
  5
2D4
330
2D2
100
AcDbEntity
  8
0
100
AcDbBlockEnd
  0
BLOCK
  5
2DF
330
2DE
100
AcDbEntity
  8
0
100
AcDbBlockBegin
  2
_D_13
 70
     0
 10
0.0
 20
0.0
 30
0.0
  3
_D_13
  1

  0
SOLID
  5
2E1
330
2DE
100
AcDbEntity
  8
0
  6
Continuous
 62
     7
370
    18
100
AcDbTrace
 10
114.7195502705
 20
39.5136206757
 30
0.0
 11
117.4136271068
 21
41.4892770224
 31
0.0
 12
116.6952066172
 22
42.207697512
 32
0.0
 13
116.6952066172
 23
42.207697512
 33
0.0
  0
SOLID
  5
2E2
330
2DE
100
AcDbEntity
  8
0
  6
Continuous
 62
     7
370
    18
100
AcDbTrace
 10
113.5174687425
 20
38.3115391477
 30
0.0
 11
110.8233919062
 21
36.3358828011
 31
0.0
 12
111.5418123959
 22
35.6174623114
 32
0.0
 13
111.5418123959
 23
35.6174623114
 33
0.0
  0
LINE
  5
2E3
330
2DE
100
AcDbEntity
  8
0
  6
Continuous
 62
     7
370
    18
100
AcDbLine
 10
114.0729166721
 20
40.1602542741
 30
0.0
 11
114.0124434893
 21
40.2207274569
 31
0.0
  0
LINE
  5
2E4
330
2DE
100
AcDbEntity
  8
0
  6
Continuous
 62
     7
370
    18
100
AcDbLine
 10
112.8708351441
 20
38.9581727461
 30
0.0
 11
112.8103619613
 21
39.0186459289
 31
0.0
  0
LINE
  5
2E5
330
2DE
100
AcDbEntity
  8
0
  6
Continuous
 62
     7
370
    18
100
AcDbLine
 10
114.7195502705
 20
39.5136206757
 30
0.0
 11
119.2096783311
 21
44.0037487363
 31
0.0
  0
LINE
  5
2E6
330
2DE
100
AcDbEntity
  8
0
  6
Continuous
 62
     7
370
    18
100
AcDbLine
 10
114.7195502705
 20
39.5136206757
 30
0.0
 11
113.5174687425
 21
38.3115391477
 31
0.0
  0
LINE
  5
2E7
330
2DE
100
AcDbEntity
  8
0
  6
Continuous
 62
     7
370
    18
100
AcDbLine
 10
113.5174687425
 20
38.3115391477
 30
0.0
 11
101.6713168621
 21
26.4653872673
 31
0.0
  0
MTEXT
  5
2E8
330
2DE
100
AcDbEntity
  8
0
  6
Continuous
 62
     7
370
    18
100
AcDbMText
 10
99.3925455116
 20
28.7441586178
 30
0.0
 40
2.5
 41
0.0
 71
     1
 72
     1
  1
%%c
  7
SLDTEXTSTYLE0
 11
0.707106781186546
 21
0.7071067811865491
 31
0.0
 73
     1
 44
1.0
  0
MTEXT
  5
2E9
330
2DE
100
AcDbEntity
  8
0
  6
Continuous
 62
     7
370
    18
100
AcDbMText
 10
102.0315515392
 20
31.4371797007
 30
0.0
 40
2.5
 41
0.0
 71
     1
 72
     1
  1
1.70
  7
SLDTEXTSTYLE0
 11
0.707106781186546
 21
0.7071067811865491
 31
0.0
 73
     1
 44
1.0
  0
ENDBLK
  5
2E0
330
2DE
100
AcDbEntity
  8
0
100
AcDbBlockEnd
  0
BLOCK
  5
2EB
330
2EA
100
AcDbEntity
  8
0
100
AcDbBlockBegin
  2
SW_NOTE_0
 70
     0
 10
0.0
 20
0.0
 30
0.0
  3
SW_NOTE_0
  1

  0
MTEXT
  5
2EE
330
2EA
100
AcDbEntity
  8
0
  6
Continuous
 62
     0
370
     0
100
AcDbMText
 10
9.4538791495
 20
1.0356416283
 30
0.0
 40
2.5
 41
0.0
 71
     2
 72
     1
  1
\M+1899A\M+19185\M+1905B\M+193780.3
  7
SLDTEXTSTYLE1
 73
     1
 44
1.0
  0
ENDBLK
  5
2EC
330
2EA
100
AcDbEntity
  8
0
100
AcDbBlockEnd
  0
BLOCK
  5
2F2
330
2F1
100
AcDbEntity
  8
0
100
AcDbBlockBegin
  2
_DOT
 70
     0
 10
0.0
 20
0.0
 30
0.0
  3
_DOT
  1

  0
POLYLINE
  5
2F4
330
2F1
100
AcDbEntity
  8
0
  6
ByBlock
 62
     0
100
AcDb2dPolyline
 66
     1
 10
0.0
 20
0.0
 30
0.0
 70
     1
 40
0.5
 41
0.5
  0
VERTEX
  5
2F6
330
2F4
100
AcDbEntity
  8
0
  6
ByBlock
 62
     0
100
AcDbVertex
100
AcDb2dVertex
 10
-0.25
 20
0.0
 30
0.0
 42
1.0
  0
VERTEX
  5
2F7
330
2F4
100
AcDbEntity
  8
0
  6
ByBlock
 62
     0
100
AcDbVertex
100
AcDb2dVertex
 10
0.25
 20
0.0
 30
0.0
 42
1.0
  0
SEQEND
  5
2F8
330
2F4
100
AcDbEntity
  8
0
  6
ByBlock
 62
     0
  0
LINE
  5
2F5
330
2F1
100
AcDbEntity
  8
0
  6
ByBlock
 62
     0
370
    -2
100
AcDbLine
 10
-0.5
 20
0.0
 30
0.0
 11
-1.0
 21
0.0
 31
0.0
  0
ENDBLK
  5
2F3
330
2F1
100
AcDbEntity
  8
0
100
AcDbBlockEnd
  0
BLOCK
  5
2FB
330
2FA
100
AcDbEntity
  8
0
100
AcDbBlockBegin
  2
SW_CENTERMARKSYMBOL_6
 70
     0
 10
0.0
 20
0.0
 30
0.0
  3
SW_CENTERMARKSYMBOL_6
  1

  0
LINE
  5
2FD
330
2FA
100
AcDbEntity
  8
0
  6
Continuous
 62
     0
370
     0
100
AcDbLine
 10
0.0
 20
0.0
 30
0.0
 11
0.0
 21
2.5
 31
0.0
  0
LINE
  5
2FE
330
2FA
100
AcDbEntity
  8
0
  6
Continuous
 62
     0
370
     0
100
AcDbLine
 10
0.0
 20
0.0
 30
0.0
 11
-2.5
 21
0.0
 31
0.0
  0
LINE
  5
2FF
330
2FA
100
AcDbEntity
  8
0
  6
Continuous
 62
     0
370
     0
100
AcDbLine
 10
0.0
 20
0.0
 30
0.0
 11
0.0
 21
-2.5
 31
0.0
  0
LINE
  5
300
330
2FA
100
AcDbEntity
  8
0
  6
Continuous
 62
     0
370
     0
100
AcDbLine
 10
0.0
 20
0.0
 30
0.0
 11
2.5
 21
0.0
 31
0.0
  0
LINE
  5
301
330
2FA
100
AcDbEntity
  8
0
  6
Continuous
 62
     0
370
     0
100
AcDbLine
 10
0.0
 20
2.5
 30
0.0
 11
0.0
 21
3.35
 31
0.0
  0
LINE
  5
302
330
2FA
100
AcDbEntity
  8
0
  6
Continuous
 62
     0
370
     0
100
AcDbLine
 10
-2.5
 20
0.0
 30
0.0
 11
-3.35
 21
0.0
 31
0.0
  0
LINE
  5
303
330
2FA
100
AcDbEntity
  8
0
  6
Continuous
 62
     0
370
     0
100
AcDbLine
 10
0.0
 20
-2.5
 30
0.0
 11
0.0
 21
-3.35
 31
0.0
  0
LINE
  5
304
330
2FA
100
AcDbEntity
  8
0
  6
Continuous
 62
     0
370
     0
100
AcDbLine
 10
2.5
 20
0.0
 30
0.0
 11
3.35
 21
0.0
 31
0.0
  0
ENDBLK
  5
2FC
330
2FA
100
AcDbEntity
  8
0
100
AcDbBlockEnd
  0
BLOCK
  5
307
330
306
100
AcDbEntity
  8
0
100
AcDbBlockBegin
  2
SW_CENTERMARKSYMBOL_7
 70
     0
 10
0.0
 20
0.0
 30
0.0
  3
SW_CENTERMARKSYMBOL_7
  1

  0
LINE
  5
309
330
306
100
AcDbEntity
  8
0
  6
Continuous
 62
     0
370
     0
100
AcDbLine
 10
0.0
 20
0.0
 30
0.0
 11
0.0
 21
2.5
 31
0.0
  0
LINE
  5
30A
330
306
100
AcDbEntity
  8
0
  6
Continuous
 62
     0
370
     0
100
AcDbLine
 10
0.0
 20
0.0
 30
0.0
 11
-2.5
 21
0.0
 31
0.0
  0
LINE
  5
30B
330
306
100
AcDbEntity
  8
0
  6
Continuous
 62
     0
370
     0
100
AcDbLine
 10
0.0
 20
0.0
 30
0.0
 11
0.0
 21
-2.5
 31
0.0
  0
LINE
  5
30C
330
306
100
AcDbEntity
  8
0
  6
Continuous
 62
     0
370
     0
100
AcDbLine
 10
0.0
 20
0.0
 30
0.0
 11
2.5
 21
0.0
 31
0.0
  0
LINE
  5
30D
330
306
100
AcDbEntity
  8
0
  6
Continuous
 62
     0
370
     0
100
AcDbLine
 10
0.0
 20
2.5
 30
0.0
 11
0.0
 21
3.35
 31
0.0
  0
LINE
  5
30E
330
306
100
AcDbEntity
  8
0
  6
Continuous
 62
     0
370
     0
100
AcDbLine
 10
-2.5
 20
0.0
 30
0.0
 11
-3.35
 21
0.0
 31
0.0
  0
LINE
  5
30F
330
306
100
AcDbEntity
  8
0
  6
Continuous
 62
     0
370
     0
100
AcDbLine
 10
0.0
 20
-2.5
 30
0.0
 11
0.0
 21
-3.35
 31
0.0
  0
LINE
  5
310
330
306
100
AcDbEntity
  8
0
  6
Continuous
 62
     0
370
     0
100
AcDbLine
 10
2.5
 20
0.0
 30
0.0
 11
3.35
 21
0.0
 31
0.0
  0
ENDBLK
  5
308
330
306
100
AcDbEntity
  8
0
100
AcDbBlockEnd
  0
BLOCK
  5
313
330
312
100
AcDbEntity
  8
0
100
AcDbBlockBegin
  2
SW_CENTERMARKSYMBOL_8
 70
     0
 10
0.0
 20
0.0
 30
0.0
  3
SW_CENTERMARKSYMBOL_8
  1

  0
LINE
  5
315
330
312
100
AcDbEntity
  8
0
  6
Continuous
 62
     0
370
     0
100
AcDbLine
 10
0.0
 20
0.0
 30
0.0
 11
0.0
 21
2.5
 31
0.0
  0
LINE
  5
316
330
312
100
AcDbEntity
  8
0
  6
Continuous
 62
     0
370
     0
100
AcDbLine
 10
0.0
 20
0.0
 30
0.0
 11
-2.5
 21
0.0
 31
0.0
  0
LINE
  5
317
330
312
100
AcDbEntity
  8
0
  6
Continuous
 62
     0
370
     0
100
AcDbLine
 10
0.0
 20
0.0
 30
0.0
 11
0.0
 21
-2.5
 31
0.0
  0
LINE
  5
318
330
312
100
AcDbEntity
  8
0
  6
Continuous
 62
     0
370
     0
100
AcDbLine
 10
0.0
 20
0.0
 30
0.0
 11
2.5
 21
0.0
 31
0.0
  0
LINE
  5
319
330
312
100
AcDbEntity
  8
0
  6
Continuous
 62
     0
370
     0
100
AcDbLine
 10
0.0
 20
2.5
 30
0.0
 11
0.0
 21
3.35
 31
0.0
  0
LINE
  5
31A
330
312
100
AcDbEntity
  8
0
  6
Continuous
 62
     0
370
     0
100
AcDbLine
 10
-2.5
 20
0.0
 30
0.0
 11
-3.35
 21
0.0
 31
0.0
  0
LINE
  5
31B
330
312
100
AcDbEntity
  8
0
  6
Continuous
 62
     0
370
     0
100
AcDbLine
 10
0.0
 20
-2.5
 30
0.0
 11
0.0
 21
-3.35
 31
0.0
  0
LINE
  5
31C
330
312
100
AcDbEntity
  8
0
  6
Continuous
 62
     0
370
     0
100
AcDbLine
 10
2.5
 20
0.0
 30
0.0
 11
3.35
 21
0.0
 31
0.0
  0
ENDBLK
  5
314
330
312
100
AcDbEntity
  8
0
100
AcDbBlockEnd
  0
BLOCK
  5
31F
330
31E
100
AcDbEntity
  8
0
100
AcDbBlockBegin
  2
SW_CENTERMARKSYMBOL_9
 70
     0
 10
0.0
 20
0.0
 30
0.0
  3
SW_CENTERMARKSYMBOL_9
  1

  0
LINE
  5
321
330
31E
100
AcDbEntity
  8
0
  6
Continuous
 62
     0
370
     0
100
AcDbLine
 10
0.0
 20
0.0
 30
0.0
 11
0.0
 21
2.5
 31
0.0
  0
LINE
  5
322
330
31E
100
AcDbEntity
  8
0
  6
Continuous
 62
     0
370
     0
100
AcDbLine
 10
0.0
 20
0.0
 30
0.0
 11
-2.5
 21
0.0
 31
0.0
  0
LINE
  5
323
330
31E
100
AcDbEntity
  8
0
  6
Continuous
 62
     0
370
     0
100
AcDbLine
 10
0.0
 20
0.0
 30
0.0
 11
0.0
 21
-2.5
 31
0.0
  0
LINE
  5
324
330
31E
100
AcDbEntity
  8
0
  6
Continuous
 62
     0
370
     0
100
AcDbLine
 10
0.0
 20
0.0
 30
0.0
 11
2.5
 21
0.0
 31
0.0
  0
LINE
  5
325
330
31E
100
AcDbEntity
  8
0
  6
Continuous
 62
     0
370
     0
100
AcDbLine
 10
0.0
 20
2.5
 30
0.0
 11
0.0
 21
3.35
 31
0.0
  0
LINE
  5
326
330
31E
100
AcDbEntity
  8
0
  6
Continuous
 62
     0
370
     0
100
AcDbLine
 10
-2.5
 20
0.0
 30
0.0
 11
-3.35
 21
0.0
 31
0.0
  0
LINE
  5
327
330
31E
100
AcDbEntity
  8
0
  6
Continuous
 62
     0
370
     0
100
AcDbLine
 10
0.0
 20
-2.5
 30
0.0
 11
0.0
 21
-3.35
 31
0.0
  0
LINE
  5
328
330
31E
100
AcDbEntity
  8
0
  6
Continuous
 62
     0
370
     0
100
AcDbLine
 10
2.5
 20
0.0
 30
0.0
 11
3.35
 21
0.0
 31
0.0
  0
ENDBLK
  5
320
330
31E
100
AcDbEntity
  8
0
100
AcDbBlockEnd
  0
BLOCK
  5
32B
330
32A
100
AcDbEntity
  8
0
100
AcDbBlockBegin
  2
SW_CENTERMARKSYMBOL_10
 70
     0
 10
0.0
 20
0.0
 30
0.0
  3
SW_CENTERMARKSYMBOL_10
  1

  0
LINE
  5
32D
330
32A
100
AcDbEntity
  8
0
  6
Continuous
 62
     0
370
     0
100
AcDbLine
 10
0.0
 20
0.0
 30
0.0
 11
0.0
 21
2.5
 31
0.0
  0
LINE
  5
32E
330
32A
100
AcDbEntity
  8
0
  6
Continuous
 62
     0
370
     0
100
AcDbLine
 10
0.0
 20
0.0
 30
0.0
 11
-2.5
 21
0.0
 31
0.0
  0
LINE
  5
32F
330
32A
100
AcDbEntity
  8
0
  6
Continuous
 62
     0
370
     0
100
AcDbLine
 10
0.0
 20
0.0
 30
0.0
 11
0.0
 21
-2.5
 31
0.0
  0
LINE
  5
330
330
32A
100
AcDbEntity
  8
0
  6
Continuous
 62
     0
370
     0
100
AcDbLine
 10
0.0
 20
0.0
 30
0.0
 11
2.5
 21
0.0
 31
0.0
  0
LINE
  5
331
330
32A
100
AcDbEntity
  8
0
  6
Continuous
 62
     0
370
     0
100
AcDbLine
 10
0.0
 20
2.5
 30
0.0
 11
0.0
 21
3.35
 31
0.0
  0
LINE
  5
332
330
32A
100
AcDbEntity
  8
0
  6
Continuous
 62
     0
370
     0
100
AcDbLine
 10
-2.5
 20
0.0
 30
0.0
 11
-3.35
 21
0.0
 31
0.0
  0
LINE
  5
333
330
32A
100
AcDbEntity
  8
0
  6
Continuous
 62
     0
370
     0
100
AcDbLine
 10
0.0
 20
-2.5
 30
0.0
 11
0.0
 21
-3.35
 31
0.0
  0
LINE
  5
334
330
32A
100
AcDbEntity
  8
0
  6
Continuous
 62
     0
370
     0
100
AcDbLine
 10
2.5
 20
0.0
 30
0.0
 11
3.35
 21
0.0
 31
0.0
  0
ENDBLK
  5
32C
330
32A
100
AcDbEntity
  8
0
100
AcDbBlockEnd
  0
BLOCK
  5
337
330
336
100
AcDbEntity
  8
0
100
AcDbBlockBegin
  2
SW_CENTERMARKSYMBOL_11
 70
     0
 10
0.0
 20
0.0
 30
0.0
  3
SW_CENTERMARKSYMBOL_11
  1

  0
LINE
  5
339
330
336
100
AcDbEntity
  8
0
  6
Continuous
 62
     0
370
     0
100
AcDbLine
 10
0.0
 20
0.0
 30
0.0
 11
0.0
 21
2.5
 31
0.0
  0
LINE
  5
33A
330
336
100
AcDbEntity
  8
0
  6
Continuous
 62
     0
370
     0
100
AcDbLine
 10
0.0
 20
0.0
 30
0.0
 11
-2.5
 21
0.0
 31
0.0
  0
LINE
  5
33B
330
336
100
AcDbEntity
  8
0
  6
Continuous
 62
     0
370
     0
100
AcDbLine
 10
0.0
 20
0.0
 30
0.0
 11
0.0
 21
-2.5
 31
0.0
  0
LINE
  5
33C
330
336
100
AcDbEntity
  8
0
  6
Continuous
 62
     0
370
     0
100
AcDbLine
 10
0.0
 20
0.0
 30
0.0
 11
2.5
 21
0.0
 31
0.0
  0
LINE
  5
33D
330
336
100
AcDbEntity
  8
0
  6
Continuous
 62
     0
370
     0
100
AcDbLine
 10
0.0
 20
2.5
 30
0.0
 11
0.0
 21
3.35
 31
0.0
  0
LINE
  5
33E
330
336
100
AcDbEntity
  8
0
  6
Continuous
 62
     0
370
     0
100
AcDbLine
 10
-2.5
 20
0.0
 30
0.0
 11
-3.35
 21
0.0
 31
0.0
  0
LINE
  5
33F
330
336
100
AcDbEntity
  8
0
  6
Continuous
 62
     0
370
     0
100
AcDbLine
 10
0.0
 20
-2.5
 30
0.0
 11
0.0
 21
-3.35
 31
0.0
  0
LINE
  5
340
330
336
100
AcDbEntity
  8
0
  6
Continuous
 62
     0
370
     0
100
AcDbLine
 10
2.5
 20
0.0
 30
0.0
 11
3.35
 21
0.0
 31
0.0
  0
ENDBLK
  5
338
330
336
100
AcDbEntity
  8
0
100
AcDbBlockEnd
  0
BLOCK
  5
3F9
330
3F8
100
AcDbEntity
  8
0
100
AcDbBlockBegin
  2
SW_NOTE_1
 70
     0
 10
0.0
 20
0.0
 30
0.0
  3
SW_NOTE_1
  1

  0
MTEXT
  5
3FB
330
3F8
100
AcDbEntity
  8
0
  6
Continuous
 62
     0
370
     0
100
AcDbMText
 10
0.0
 20
8.8677118265
 30
0.0
 40
6.8791666667
 41
0.0
 71
     1
 72
     1
  1
Heatsink_A1053
  7
SLDTEXTSTYLE0
 73
     1
 44
1.0
  0
MTEXT
  5
3FC
330
3F8
100
AcDbEntity
  8
0
  6
Continuous
 62
     0
370
     0
100
AcDbMText
 10
0.0
 20
-0.0139576741
 30
0.0
 40
3.5
 41
0.0
 71
     1
 72
     1
  1
2020-06-03
  7
SLDTEXTSTYLE0
 73
     1
 44
1.0
  0
MTEXT
  5
3FE
330
3F8
100
AcDbEntity
  8
0
  6
Continuous
 62
     0
370
     0
100
AcDbMText
 10
0.0
 20
-4.5396522045
 30
0.0
 40
3.5
 41
0.0
 71
     1
 72
     1
  1
\U+5355\M+188CA\M+18146  mm
  7
SLDTEXTSTYLE2
 73
     1
 44
1.0
  0
ENDBLK
  5
3FA
330
3F8
100
AcDbEntity
  8
0
100
AcDbBlockEnd
  0
ENDSEC
  0
SECTION
  2
ENTITIES
  0
LINE
  5
74
330
1F
100
AcDbEntity
  8
0
  6
Continuous
 62
     7
370
    25
100
AcDbLine
 10
183.5805823811
 20
132.8394245685
 30
0.0
 11
183.5805823811
 21
132.5394250781
 31
0.0
  0
LINE
  5
75
330
1F
100
AcDbEntity
  8
0
  6
Continuous
 62
     7
370
    25
100
AcDbLine
 10
183.5805823811
 20
132.5394250781
 30
0.0
 11
111.5817812988
 21
132.5394250781
 31
0.0
  0
LINE
  5
76
330
1F
100
AcDbEntity
  8
0
  6
Continuous
 62
     7
370
    25
100
AcDbLine
 10
111.5817812988
 20
132.5394250781
 30
0.0
 11
111.5817812988
 21
132.8394245685
 31
0.0
  0
LINE
  5
77
330
1F
100
AcDbEntity
  8
0
  6
Continuous
 62
     7
370
    25
100
AcDbLine
 10
111.5817812988
 20
132.8394245685
 30
0.0
 11
183.5805823811
 21
132.8394245685
 31
0.0
  0
LINE
  5
78
330
1F
100
AcDbEntity
  8
0
  6
Continuous
 62
     7
370
    25
100
AcDbLine
 10
111.5817812988
 20
133.2394248203
 30
0.0
 11
111.5817812988
 21
133.539425242
 31
0.0
  0
LINE
  5
79
330
1F
100
AcDbEntity
  8
0
  6
Continuous
 62
     7
370
    25
100
AcDbLine
 10
111.5817812988
 20
133.539425242
 30
0.0
 11
183.5805823811
 21
133.539425242
 31
0.0
  0
LINE
  5
7A
330
1F
100
AcDbEntity
  8
0
  6
Continuous
 62
     7
370
    25
100
AcDbLine
 10
183.5805823811
 20
133.539425242
 30
0.0
 11
183.5805823811
 21
133.2394248203
 31
0.0
  0
LINE
  5
7B
330
1F
100
AcDbEntity
  8
0
  6
Continuous
 62
     7
370
    25
100
AcDbLine
 10
183.5805823811
 20
133.2394248203
 30
0.0
 11
111.5817812988
 21
133.2394248203
 31
0.0
  0
LINE
  5
7C
330
1F
100
AcDbEntity
  8
0
  6
Continuous
 62
     7
370
    25
100
AcDbLine
 10
183.5805823811
 20
134.8394248963
 30
0.0
 11
183.5805823811
 21
134.5394249402
 31
0.0
  0
LINE
  5
7D
330
1F
100
AcDbEntity
  8
0
  6
Continuous
 62
     7
370
    25
100
AcDbLine
 10
183.5805823811
 20
134.5394249402
 30
0.0
 11
111.5817812988
 21
134.5394249402
 31
0.0
  0
LINE
  5
7E
330
1F
100
AcDbEntity
  8
0
  6
Continuous
 62
     7
370
    25
100
AcDbLine
 10
111.5817812988
 20
134.5394249402
 30
0.0
 11
111.5817812988
 21
134.8394248963
 31
0.0
  0
LINE
  5
7F
330
1F
100
AcDbEntity
  8
0
  6
Continuous
 62
     7
370
    25
100
AcDbLine
 10
111.5817812988
 20
134.8394248963
 30
0.0
 11
183.5805823811
 21
134.8394248963
 31
0.0
  0
LINE
  5
80
330
1F
100
AcDbEntity
  8
0
  6
Continuous
 62
     7
370
    25
100
AcDbLine
 10
111.5817812988
 20
135.2394246824
 30
0.0
 11
111.5817812988
 21
135.5394246385
 31
0.0
  0
LINE
  5
81
330
1F
100
AcDbEntity
  8
0
  6
Continuous
 62
     7
370
    25
100
AcDbLine
 10
111.5817812988
 20
135.5394246385
 30
0.0
 11
183.5805823811
 21
135.5394246385
 31
0.0
  0
LINE
  5
82
330
1F
100
AcDbEntity
  8
0
  6
Continuous
 62
     7
370
    25
100
AcDbLine
 10
183.5805823811
 20
135.5394246385
 30
0.0
 11
183.5805823811
 21
135.2394246824
 31
0.0
  0
LINE
  5
83
330
1F
100
AcDbEntity
  8
0
  6
Continuous
 62
     7
370
    25
100
AcDbLine
 10
183.5805823811
 20
135.2394246824
 30
0.0
 11
111.5817812988
 21
135.2394246824
 31
0.0
  0
LINE
  5
84
330
1F
100
AcDbEntity
  8
0
  6
Continuous
 62
     7
370
    25
100
AcDbLine
 10
183.5805823811
 20
154.8394244492
 30
0.0
 11
111.5817812988
 21
154.8394244492
 31
0.0
  0
LINE
  5
85
330
1F
100
AcDbEntity
  8
0
  6
Continuous
 62
     7
370
    25
100
AcDbLine
 10
183.5805823811
 20
154.5394249589
 30
0.0
 11
183.5805823811
 21
154.8394244492
 31
0.0
  0
LINE
  5
86
330
1F
100
AcDbEntity
  8
0
  6
Continuous
 62
     7
370
    25
100
AcDbLine
 10
183.5805823811
 20
154.5394249589
 30
0.0
 11
111.5817812988
 21
154.5394249589
 31
0.0
  0
LINE
  5
87
330
1F
100
AcDbEntity
  8
0
  6
Continuous
 62
     7
370
    25
100
AcDbLine
 10
111.5817812988
 20
154.8394244492
 30
0.0
 11
111.5817812988
 21
154.5394249589
 31
0.0
  0
LINE
  5
88
330
1F
100
AcDbEntity
  8
0
  6
Continuous
 62
     7
370
    25
100
AcDbLine
 10
111.5817812988
 20
155.2394247011
 30
0.0
 11
183.5805823811
 21
155.2394247011
 31
0.0
  0
LINE
  5
89
330
1F
100
AcDbEntity
  8
0
  6
Continuous
 62
     7
370
    25
100
AcDbLine
 10
111.5817812988
 20
155.5394251228
 30
0.0
 11
111.5817812988
 21
155.2394247011
 31
0.0
  0
LINE
  5
8A
330
1F
100
AcDbEntity
  8
0
  6
Continuous
 62
     7
370
    25
100
AcDbLine
 10
111.5817812988
 20
155.5394251228
 30
0.0
 11
183.5805823811
 21
155.5394251228
 31
0.0
  0
LINE
  5
8B
330
1F
100
AcDbEntity
  8
0
  6
Continuous
 62
     7
370
    25
100
AcDbLine
 10
183.5805823811
 20
155.2394247011
 30
0.0
 11
183.5805823811
 21
155.5394251228
 31
0.0
  0
LINE
  5
8C
330
1F
100
AcDbEntity
  8
0
  6
Continuous
 62
     7
370
    25
100
AcDbLine
 10
111.5817812988
 20
153.2394253046
 30
0.0
 11
183.5805823811
 21
153.2394253046
 31
0.0
  0
LINE
  5
8D
330
1F
100
AcDbEntity
  8
0
  6
Continuous
 62
     7
370
    25
100
AcDbLine
 10
111.5817812988
 20
153.5394247949
 30
0.0
 11
111.5817812988
 21
153.2394253046
 31
0.0
  0
LINE
  5
8E
330
1F
100
AcDbEntity
  8
0
  6
Continuous
 62
     7
370
    25
100
AcDbLine
 10
111.5817812988
 20
153.5394247949
 30
0.0
 11
183.5805823811
 21
153.5394247949
 31
0.0
  0
LINE
  5
8F
330
1F
100
AcDbEntity
  8
0
  6
Continuous
 62
     7
370
    25
100
AcDbLine
 10
183.5805823811
 20
153.2394253046
 30
0.0
 11
183.5805823811
 21
153.5394247949
 31
0.0
  0
LINE
  5
90
330
1F
100
AcDbEntity
  8
0
  6
Continuous
 62
     7
370
    25
100
AcDbLine
 10
183.5805823811
 20
152.8394250527
 30
0.0
 11
111.5817812988
 21
152.8394250527
 31
0.0
  0
LINE
  5
91
330
1F
100
AcDbEntity
  8
0
  6
Continuous
 62
     7
370
    25
100
AcDbLine
 10
183.5805823811
 20
152.539424631
 30
0.0
 11
183.5805823811
 21
152.8394250527
 31
0.0
  0
LINE
  5
92
330
1F
100
AcDbEntity
  8
0
  6
Continuous
 62
     7
370
    25
100
AcDbLine
 10
183.5805823811
 20
152.539424631
 30
0.0
 11
111.5817812988
 21
152.539424631
 31
0.0
  0
LINE
  5
93
330
1F
100
AcDbEntity
  8
0
  6
Continuous
 62
     7
370
    25
100
AcDbLine
 10
111.5817812988
 20
152.8394250527
 30
0.0
 11
111.5817812988
 21
152.539424631
 31
0.0
  0
LINE
  5
94
330
1F
100
AcDbEntity
  8
0
  6
Continuous
 62
     7
370
    25
100
AcDbLine
 10
111.5817812988
 20
151.2394249767
 30
0.0
 11
183.5805823811
 21
151.2394249767
 31
0.0
  0
LINE
  5
95
330
1F
100
AcDbEntity
  8
0
  6
Continuous
 62
     7
370
    25
100
AcDbLine
 10
111.5817812988
 20
151.5394244671
 30
0.0
 11
111.5817812988
 21
151.2394249767
 31
0.0
  0
LINE
  5
96
330
1F
100
AcDbEntity
  8
0
  6
Continuous
 62
     7
370
    25
100
AcDbLine
 10
111.5817812988
 20
151.5394244671
 30
0.0
 11
183.5805823811
 21
151.5394244671
 31
0.0
  0
LINE
  5
97
330
1F
100
AcDbEntity
  8
0
  6
Continuous
 62
     7
370
    25
100
AcDbLine
 10
183.5805823811
 20
151.2394249767
 30
0.0
 11
183.5805823811
 21
151.5394244671
 31
0.0
  0
LINE
  5
98
330
1F
100
AcDbEntity
  8
0
  6
Continuous
 62
     7
370
    25
100
AcDbLine
 10
183.5805823811
 20
150.8394247249
 30
0.0
 11
111.5817812988
 21
150.8394247249
 31
0.0
  0
LINE
  5
99
330
1F
100
AcDbEntity
  8
0
  6
Continuous
 62
     7
370
    25
100
AcDbLine
 10
183.5805823811
 20
150.5394252345
 30
0.0
 11
183.5805823811
 21
150.8394247249
 31
0.0
  0
LINE
  5
9A
330
1F
100
AcDbEntity
  8
0
  6
Continuous
 62
     7
370
    25
100
AcDbLine
 10
183.5805823811
 20
150.5394252345
 30
0.0
 11
111.5817812988
 21
150.5394252345
 31
0.0
  0
LINE
  5
9B
330
1F
100
AcDbEntity
  8
0
  6
Continuous
 62
     7
370
    25
100
AcDbLine
 10
111.5817812988
 20
150.8394247249
 30
0.0
 11
111.5817812988
 21
150.5394252345
 31
0.0
  0
LINE
  5
9C
330
1F
100
AcDbEntity
  8
0
  6
Continuous
 62
     7
370
    25
100
AcDbLine
 10
111.5817812988
 20
149.2394246489
 30
0.0
 11
183.5805823811
 21
149.2394246489
 31
0.0
  0
LINE
  5
9D
330
1F
100
AcDbEntity
  8
0
  6
Continuous
 62
     7
370
    25
100
AcDbLine
 10
111.5817812988
 20
149.5394250706
 30
0.0
 11
111.5817812988
 21
149.2394246489
 31
0.0
  0
LINE
  5
9E
330
1F
100
AcDbEntity
  8
0
  6
Continuous
 62
     7
370
    25
100
AcDbLine
 10
111.5817812988
 20
149.5394250706
 30
0.0
 11
183.5805823811
 21
149.5394250706
 31
0.0
  0
LINE
  5
9F
330
1F
100
AcDbEntity
  8
0
  6
Continuous
 62
     7
370
    25
100
AcDbLine
 10
183.5805823811
 20
149.2394246489
 30
0.0
 11
183.5805823811
 21
149.5394250706
 31
0.0
  0
LINE
  5
A0
330
1F
100
AcDbEntity
  8
0
  6
Continuous
 62
     7
370
    25
100
AcDbLine
 10
183.5805823811
 20
148.8394248627
 30
0.0
 11
111.5817812988
 21
148.8394248627
 31
0.0
  0
LINE
  5
A1
330
1F
100
AcDbEntity
  8
0
  6
Continuous
 62
     7
370
    25
100
AcDbLine
 10
183.5805823811
 20
148.5394249067
 30
0.0
 11
183.5805823811
 21
148.8394248627
 31
0.0
  0
LINE
  5
A2
330
1F
100
AcDbEntity
  8
0
  6
Continuous
 62
     7
370
    25
100
AcDbLine
 10
183.5805823811
 20
148.5394249067
 30
0.0
 11
111.5817812988
 21
148.5394249067
 31
0.0
  0
LINE
  5
A3
330
1F
100
AcDbEntity
  8
0
  6
Continuous
 62
     7
370
    25
100
AcDbLine
 10
111.5817812988
 20
148.8394248627
 30
0.0
 11
111.5817812988
 21
148.5394249067
 31
0.0
  0
LINE
  5
A4
330
1F
100
AcDbEntity
  8
0
  6
Continuous
 62
     7
370
    25
100
AcDbLine
 10
111.5817812988
 20
147.2394247868
 30
0.0
 11
183.5805823811
 21
147.2394247868
 31
0.0
  0
LINE
  5
A5
330
1F
100
AcDbEntity
  8
0
  6
Continuous
 62
     7
370
    25
100
AcDbLine
 10
111.5817812988
 20
147.5394247428
 30
0.0
 11
111.5817812988
 21
147.2394247868
 31
0.0
  0
LINE
  5
A6
330
1F
100
AcDbEntity
  8
0
  6
Continuous
 62
     7
370
    25
100
AcDbLine
 10
111.5817812988
 20
147.5394247428
 30
0.0
 11
183.5805823811
 21
147.5394247428
 31
0.0
  0
LINE
  5
A7
330
1F
100
AcDbEntity
  8
0
  6
Continuous
 62
     7
370
    25
100
AcDbLine
 10
183.5805823811
 20
147.2394247868
 30
0.0
 11
183.5805823811
 21
147.5394247428
 31
0.0
  0
LINE
  5
A8
330
1F
100
AcDbEntity
  8
0
  6
Continuous
 62
     7
370
    25
100
AcDbLine
 10
183.5805823811
 20
146.8394250006
 30
0.0
 11
111.5817812988
 21
146.8394250006
 31
0.0
  0
LINE
  5
A9
330
1F
100
AcDbEntity
  8
0
  6
Continuous
 62
     7
370
    25
100
AcDbLine
 10
183.5805823811
 20
146.5394250445
 30
0.0
 11
183.5805823811
 21
146.8394250006
 31
0.0
  0
LINE
  5
AA
330
1F
100
AcDbEntity
  8
0
  6
Continuous
 62
     7
370
    25
100
AcDbLine
 10
183.5805823811
 20
146.5394250445
 30
0.0
 11
111.5817812988
 21
146.5394250445
 31
0.0
  0
LINE
  5
AB
330
1F
100
AcDbEntity
  8
0
  6
Continuous
 62
     7
370
    25
100
AcDbLine
 10
111.5817812988
 20
146.8394250006
 30
0.0
 11
111.5817812988
 21
146.5394250445
 31
0.0
  0
LINE
  5
AC
330
1F
100
AcDbEntity
  8
0
  6
Continuous
 62
     7
370
    25
100
AcDbLine
 10
111.5817812988
 20
145.2394249246
 30
0.0
 11
183.5805823811
 21
145.2394249246
 31
0.0
  0
LINE
  5
AD
330
1F
100
AcDbEntity
  8
0
  6
Continuous
 62
     7
370
    25
100
AcDbLine
 10
111.5817812988
 20
145.5394248806
 30
0.0
 11
111.5817812988
 21
145.2394249246
 31
0.0
  0
LINE
  5
AE
330
1F
100
AcDbEntity
  8
0
  6
Continuous
 62
     7
370
    25
100
AcDbLine
 10
111.5817812988
 20
145.5394248806
 30
0.0
 11
183.5805823811
 21
145.5394248806
 31
0.0
  0
LINE
  5
AF
330
1F
100
AcDbEntity
  8
0
  6
Continuous
 62
     7
370
    25
100
AcDbLine
 10
183.5805823811
 20
145.2394249246
 30
0.0
 11
183.5805823811
 21
145.5394248806
 31
0.0
  0
LINE
  5
B0
330
1F
100
AcDbEntity
  8
0
  6
Continuous
 62
     7
370
    25
100
AcDbLine
 10
183.5805823811
 20
144.8394249056
 30
0.0
 11
111.5817812988
 21
144.8394249056
 31
0.0
  0
LINE
  5
B1
330
1F
100
AcDbEntity
  8
0
  6
Continuous
 62
     7
370
    25
100
AcDbLine
 10
183.5805823811
 20
144.5394249495
 30
0.0
 11
183.5805823811
 21
144.8394249056
 31
0.0
  0
LINE
  5
B2
330
1F
100
AcDbEntity
  8
0
  6
Continuous
 62
     7
370
    25
100
AcDbLine
 10
183.5805823811
 20
144.5394249495
 30
0.0
 11
111.5817812988
 21
144.5394249495
 31
0.0
  0
LINE
  5
B3
330
1F
100
AcDbEntity
  8
0
  6
Continuous
 62
     7
370
    25
100
AcDbLine
 10
111.5817812988
 20
144.8394249056
 30
0.0
 11
111.5817812988
 21
144.5394249495
 31
0.0
  0
LINE
  5
B4
330
1F
100
AcDbEntity
  8
0
  6
Continuous
 62
     7
370
    25
100
AcDbLine
 10
111.5817812988
 20
143.2394248296
 30
0.0
 11
183.5805823811
 21
143.2394248296
 31
0.0
  0
LINE
  5
B5
330
1F
100
AcDbEntity
  8
0
  6
Continuous
 62
     7
370
    25
100
AcDbLine
 10
111.5817812988
 20
143.5394247856
 30
0.0
 11
111.5817812988
 21
143.2394248296
 31
0.0
  0
LINE
  5
B6
330
1F
100
AcDbEntity
  8
0
  6
Continuous
 62
     7
370
    25
100
AcDbLine
 10
111.5817812988
 20
143.5394247856
 30
0.0
 11
183.5805823811
 21
143.5394247856
 31
0.0
  0
LINE
  5
B7
330
1F
100
AcDbEntity
  8
0
  6
Continuous
 62
     7
370
    25
100
AcDbLine
 10
183.5805823811
 20
143.2394248296
 30
0.0
 11
183.5805823811
 21
143.5394247856
 31
0.0
  0
LINE
  5
B8
330
1F
100
AcDbEntity
  8
0
  6
Continuous
 62
     7
370
    25
100
AcDbLine
 10
183.5805823811
 20
142.8394248106
 30
0.0
 11
111.5817812988
 21
142.8394248106
 31
0.0
  0
LINE
  5
B9
330
1F
100
AcDbEntity
  8
0
  6
Continuous
 62
     7
370
    25
100
AcDbLine
 10
183.5805823811
 20
142.5394248546
 30
0.0
 11
183.5805823811
 21
142.8394248106
 31
0.0
  0
LINE
  5
BA
330
1F
100
AcDbEntity
  8
0
  6
Continuous
 62
     7
370
    25
100
AcDbLine
 10
183.5805823811
 20
142.5394248546
 30
0.0
 11
111.5817812988
 21
142.5394248546
 31
0.0
  0
LINE
  5
BB
330
1F
100
AcDbEntity
  8
0
  6
Continuous
 62
     7
370
    25
100
AcDbLine
 10
111.5817812988
 20
142.8394248106
 30
0.0
 11
111.5817812988
 21
142.5394248546
 31
0.0
  0
LINE
  5
BC
330
1F
100
AcDbEntity
  8
0
  6
Continuous
 62
     7
370
    25
100
AcDbLine
 10
111.5817812988
 20
141.239424851
 30
0.0
 11
183.5805823811
 21
141.239424851
 31
0.0
  0
LINE
  5
BD
330
1F
100
AcDbEntity
  8
0
  6
Continuous
 62
     7
370
    25
100
AcDbLine
 10
111.5817812988
 20
141.5394248434
 30
0.0
 11
111.5817812988
 21
141.239424851
 31
0.0
  0
LINE
  5
BE
330
1F
100
AcDbEntity
  8
0
  6
Continuous
 62
     7
370
    25
100
AcDbLine
 10
111.5817812988
 20
141.5394248434
 30
0.0
 11
183.5805823811
 21
141.5394248434
 31
0.0
  0
LINE
  5
BF
330
1F
100
AcDbEntity
  8
0
  6
Continuous
 62
     7
370
    25
100
AcDbLine
 10
183.5805823811
 20
141.239424851
 30
0.0
 11
183.5805823811
 21
141.5394248434
 31
0.0
  0
LINE
  5
C0
330
1F
100
AcDbEntity
  8
0
  6
Continuous
 62
     7
370
    25
100
AcDbLine
 10
183.5805823811
 20
140.839424832
 30
0.0
 11
111.5817812988
 21
140.839424832
 31
0.0
  0
LINE
  5
C1
330
1F
100
AcDbEntity
  8
0
  6
Continuous
 62
     7
370
    25
100
AcDbLine
 10
183.5805823811
 20
140.539424876
 30
0.0
 11
183.5805823811
 21
140.839424832
 31
0.0
  0
LINE
  5
C2
330
1F
100
AcDbEntity
  8
0
  6
Continuous
 62
     7
370
    25
100
AcDbLine
 10
183.5805823811
 20
140.539424876
 30
0.0
 11
111.5817812988
 21
140.539424876
 31
0.0
  0
LINE
  5
C3
330
1F
100
AcDbEntity
  8
0
  6
Continuous
 62
     7
370
    25
100
AcDbLine
 10
111.5817812988
 20
140.839424832
 30
0.0
 11
111.5817812988
 21
140.539424876
 31
0.0
  0
LINE
  5
C4
330
1F
100
AcDbEntity
  8
0
  6
Continuous
 62
     7
370
    25
100
AcDbLine
 10
111.5817812988
 20
149.2394246489
 30
0.0
 11
111.5817812988
 21
148.8394248627
 31
0.0
  0
LINE
  5
C5
330
1F
100
AcDbEntity
  8
0
  6
Continuous
 62
     7
370
    25
100
AcDbLine
 10
183.5805823811
 20
149.2394246489
 30
0.0
 11
183.5805823811
 21
148.8394248627
 31
0.0
  0
LINE
  5
C6
330
1F
100
AcDbEntity
  8
0
  6
Continuous
 62
     7
370
    25
100
AcDbLine
 10
183.5805823811
 20
121.2394256473
 30
0.0
 11
111.5817812988
 21
121.2394256473
 31
0.0
  0
LINE
  5
C7
330
1F
100
AcDbEntity
  8
0
  6
Continuous
 62
     7
370
    25
100
AcDbLine
 10
183.5805823811
 20
121.2394256473
 30
0.0
 11
183.5805823811
 21
120.8394244641
 31
0.0
  0
LINE
  5
C8
330
1F
100
AcDbEntity
  8
0
  6
Continuous
 62
     7
370
    25
100
AcDbLine
 10
111.5817812988
 20
120.8394244641
 30
0.0
 11
183.5805823811
 21
120.8394244641
 31
0.0
  0
LINE
  5
C9
330
1F
100
AcDbEntity
  8
0
  6
Continuous
 62
     7
370
    25
100
AcDbLine
 10
111.5817812988
 20
121.2394256473
 30
0.0
 11
111.5817812988
 21
120.8394244641
 31
0.0
  0
LINE
  5
CA
330
1F
100
AcDbEntity
  8
0
  6
Continuous
 62
     7
370
    25
100
AcDbLine
 10
183.5805823811
 20
123.2394241125
 30
0.0
 11
111.5817812988
 21
123.2394241125
 31
0.0
  0
LINE
  5
CB
330
1F
100
AcDbEntity
  8
0
  6
Continuous
 62
     7
370
    25
100
AcDbLine
 10
111.5817812988
 20
122.839424792
 30
0.0
 11
183.5805823811
 21
122.839424792
 31
0.0
  0
LINE
  5
CC
330
1F
100
AcDbEntity
  8
0
  6
Continuous
 62
     7
370
    25
100
AcDbLine
 10
111.5817812988
 20
122.839424792
 30
0.0
 11
111.5817812988
 21
123.2394241125
 31
0.0
  0
LINE
  5
CD
330
1F
100
AcDbEntity
  8
0
  6
Continuous
 62
     7
370
    25
100
AcDbLine
 10
183.5805823811
 20
122.839424792
 30
0.0
 11
183.5805823811
 21
123.2394241125
 31
0.0
  0
LINE
  5
CE
330
1F
100
AcDbEntity
  8
0
  6
Continuous
 62
     7
370
    25
100
AcDbLine
 10
183.5805823811
 20
125.2394244403
 30
0.0
 11
111.5817812988
 21
125.2394244403
 31
0.0
  0
LINE
  5
CF
330
1F
100
AcDbEntity
  8
0
  6
Continuous
 62
     7
370
    25
100
AcDbLine
 10
111.5817812988
 20
124.8394251198
 30
0.0
 11
183.5805823811
 21
124.8394251198
 31
0.0
  0
LINE
  5
D0
330
1F
100
AcDbEntity
  8
0
  6
Continuous
 62
     7
370
    25
100
AcDbLine
 10
111.5817812988
 20
124.8394251198
 30
0.0
 11
111.5817812988
 21
125.2394244403
 31
0.0
  0
LINE
  5
D1
330
1F
100
AcDbEntity
  8
0
  6
Continuous
 62
     7
370
    25
100
AcDbLine
 10
183.5805823811
 20
124.8394251198
 30
0.0
 11
183.5805823811
 21
125.2394244403
 31
0.0
  0
LINE
  5
D2
330
1F
100
AcDbEntity
  8
0
  6
Continuous
 62
     7
370
    25
100
AcDbLine
 10
183.5805823811
 20
127.2394247681
 30
0.0
 11
111.5817812988
 21
127.2394247681
 31
0.0
  0
LINE
  5
D3
330
1F
100
AcDbEntity
  8
0
  6
Continuous
 62
     7
370
    25
100
AcDbLine
 10
111.5817812988
 20
126.8394245163
 30
0.0
 11
183.5805823811
 21
126.8394245163
 31
0.0
  0
LINE
  5
D4
330
1F
100
AcDbEntity
  8
0
  6
Continuous
 62
     7
370
    25
100
AcDbLine
 10
111.5817812988
 20
126.8394245163
 30
0.0
 11
111.5817812988
 21
127.2394247681
 31
0.0
  0
LINE
  5
D5
330
1F
100
AcDbEntity
  8
0
  6
Continuous
 62
     7
370
    25
100
AcDbLine
 10
183.5805823811
 20
126.8394245163
 30
0.0
 11
183.5805823811
 21
127.2394247681
 31
0.0
  0
LINE
  5
D6
330
1F
100
AcDbEntity
  8
0
  6
Continuous
 62
     7
370
    25
100
AcDbLine
 10
183.5805823811
 20
129.239425096
 30
0.0
 11
111.5817812988
 21
129.239425096
 31
0.0
  0
LINE
  5
D7
330
1F
100
AcDbEntity
  8
0
  6
Continuous
 62
     7
370
    25
100
AcDbLine
 10
111.5817812988
 20
128.8394248441
 30
0.0
 11
183.5805823811
 21
128.8394248441
 31
0.0
  0
LINE
  5
D8
330
1F
100
AcDbEntity
  8
0
  6
Continuous
 62
     7
370
    25
100
AcDbLine
 10
111.5817812988
 20
128.8394248441
 30
0.0
 11
111.5817812988
 21
129.239425096
 31
0.0
  0
LINE
  5
D9
330
1F
100
AcDbEntity
  8
0
  6
Continuous
 62
     7
370
    25
100
AcDbLine
 10
183.5805823811
 20
128.8394248441
 30
0.0
 11
183.5805823811
 21
129.239425096
 31
0.0
  0
LINE
  5
DA
330
1F
100
AcDbEntity
  8
0
  6
Continuous
 62
     7
370
    25
100
AcDbLine
 10
183.5805823811
 20
131.2394244925
 30
0.0
 11
111.5817812988
 21
131.2394244925
 31
0.0
  0
LINE
  5
DB
330
1F
100
AcDbEntity
  8
0
  6
Continuous
 62
     7
370
    25
100
AcDbLine
 10
111.5817812988
 20
130.8394251719
 30
0.0
 11
183.5805823811
 21
130.8394251719
 31
0.0
  0
LINE
  5
DC
330
1F
100
AcDbEntity
  8
0
  6
Continuous
 62
     7
370
    25
100
AcDbLine
 10
111.5817812988
 20
130.8394251719
 30
0.0
 11
111.5817812988
 21
131.2394244925
 31
0.0
  0
LINE
  5
DD
330
1F
100
AcDbEntity
  8
0
  6
Continuous
 62
     7
370
    25
100
AcDbLine
 10
183.5805823811
 20
130.8394251719
 30
0.0
 11
183.5805823811
 21
131.2394244925
 31
0.0
  0
LINE
  5
DE
330
1F
100
AcDbEntity
  8
0
  6
Continuous
 62
     7
370
    25
100
AcDbLine
 10
111.5817812988
 20
132.8394245685
 30
0.0
 11
111.5817812988
 21
133.2394248203
 31
0.0
  0
LINE
  5
DF
330
1F
100
AcDbEntity
  8
0
  6
Continuous
 62
     7
370
    25
100
AcDbLine
 10
183.5805823811
 20
132.8394245685
 30
0.0
 11
183.5805823811
 21
133.2394248203
 31
0.0
  0
LINE
  5
E0
330
1F
100
AcDbEntity
  8
0
  6
Continuous
 62
     7
370
    25
100
AcDbLine
 10
111.5817812988
 20
134.8394248963
 30
0.0
 11
111.5817812988
 21
135.2394246824
 31
0.0
  0
LINE
  5
E1
330
1F
100
AcDbEntity
  8
0
  6
Continuous
 62
     7
370
    25
100
AcDbLine
 10
183.5805823811
 20
134.8394248963
 30
0.0
 11
183.5805823811
 21
135.2394246824
 31
0.0
  0
LINE
  5
E2
330
1F
100
AcDbEntity
  8
0
  6
Continuous
 62
     7
370
    25
100
AcDbLine
 10
183.5805823811
 20
154.8394244492
 30
0.0
 11
183.5805823811
 21
155.2394247011
 31
0.0
  0
LINE
  5
E3
330
1F
100
AcDbEntity
  8
0
  6
Continuous
 62
     7
370
    25
100
AcDbLine
 10
111.5817812988
 20
154.8394244492
 30
0.0
 11
111.5817812988
 21
155.2394247011
 31
0.0
  0
LINE
  5
E4
330
1F
100
AcDbEntity
  8
0
  6
Continuous
 62
     7
370
    25
100
AcDbLine
 10
111.5817812988
 20
153.2394253046
 30
0.0
 11
111.5817812988
 21
152.8394250527
 31
0.0
  0
LINE
  5
E5
330
1F
100
AcDbEntity
  8
0
  6
Continuous
 62
     7
370
    25
100
AcDbLine
 10
183.5805823811
 20
153.2394253046
 30
0.0
 11
183.5805823811
 21
152.8394250527
 31
0.0
  0
LINE
  5
E6
330
1F
100
AcDbEntity
  8
0
  6
Continuous
 62
     7
370
    25
100
AcDbLine
 10
111.5817812988
 20
151.2394249767
 30
0.0
 11
111.5817812988
 21
150.8394247249
 31
0.0
  0
LINE
  5
E7
330
1F
100
AcDbEntity
  8
0
  6
Continuous
 62
     7
370
    25
100
AcDbLine
 10
183.5805823811
 20
151.2394249767
 30
0.0
 11
183.5805823811
 21
150.8394247249
 31
0.0
  0
LINE
  5
E8
330
1F
100
AcDbEntity
  8
0
  6
Continuous
 62
     7
370
    25
100
AcDbLine
 10
183.5805823811
 20
124.5394256294
 30
0.0
 11
111.5817812988
 21
124.5394256294
 31
0.0
  0
LINE
  5
E9
330
1F
100
AcDbEntity
  8
0
  6
Continuous
 62
     7
370
    25
100
AcDbLine
 10
111.5817812988
 20
124.5394256294
 30
0.0
 11
111.5817812988
 21
124.8394251198
 31
0.0
  0
LINE
  5
EA
330
1F
100
AcDbEntity
  8
0
  6
Continuous
 62
     7
370
    25
100
AcDbLine
 10
183.5805823811
 20
124.8394251198
 30
0.0
 11
183.5805823811
 21
124.5394256294
 31
0.0
  0
LINE
  5
EB
330
1F
100
AcDbEntity
  8
0
  6
Continuous
 62
     7
370
    25
100
AcDbLine
 10
111.5817812988
 20
125.5394239307
 30
0.0
 11
183.5805823811
 21
125.5394239307
 31
0.0
  0
LINE
  5
EC
330
1F
100
AcDbEntity
  8
0
  6
Continuous
 62
     7
370
    25
100
AcDbLine
 10
111.5817812988
 20
125.2394244403
 30
0.0
 11
111.5817812988
 21
125.5394239307
 31
0.0
  0
LINE
  5
ED
330
1F
100
AcDbEntity
  8
0
  6
Continuous
 62
     7
370
    25
100
AcDbLine
 10
183.5805823811
 20
125.5394239307
 30
0.0
 11
183.5805823811
 21
125.2394244403
 31
0.0
  0
LINE
  5
EE
330
1F
100
AcDbEntity
  8
0
  6
Continuous
 62
     7
370
    25
100
AcDbLine
 10
183.5805823811
 20
126.5394250259
 30
0.0
 11
111.5817812988
 21
126.5394250259
 31
0.0
  0
LINE
  5
EF
330
1F
100
AcDbEntity
  8
0
  6
Continuous
 62
     7
370
    25
100
AcDbLine
 10
111.5817812988
 20
126.5394250259
 30
0.0
 11
111.5817812988
 21
126.8394245163
 31
0.0
  0
LINE
  5
F0
330
1F
100
AcDbEntity
  8
0
  6
Continuous
 62
     7
370
    25
100
AcDbLine
 10
183.5805823811
 20
126.8394245163
 30
0.0
 11
183.5805823811
 21
126.5394250259
 31
0.0
  0
LINE
  5
F1
330
1F
100
AcDbEntity
  8
0
  6
Continuous
 62
     7
370
    25
100
AcDbLine
 10
111.5817812988
 20
127.5394251898
 30
0.0
 11
183.5805823811
 21
127.5394251898
 31
0.0
  0
LINE
  5
F2
330
1F
100
AcDbEntity
  8
0
  6
Continuous
 62
     7
370
    25
100
AcDbLine
 10
111.5817812988
 20
127.2394247681
 30
0.0
 11
111.5817812988
 21
127.5394251898
 31
0.0
  0
LINE
  5
F3
330
1F
100
AcDbEntity
  8
0
  6
Continuous
 62
     7
370
    25
100
AcDbLine
 10
183.5805823811
 20
127.5394251898
 30
0.0
 11
183.5805823811
 21
127.2394247681
 31
0.0
  0
LINE
  5
F4
330
1F
100
AcDbEntity
  8
0
  6
Continuous
 62
     7
370
    25
100
AcDbLine
 10
111.5817812988
 20
147.2394247868
 30
0.0
 11
111.5817812988
 21
146.8394250006
 31
0.0
  0
LINE
  5
F5
330
1F
100
AcDbEntity
  8
0
  6
Continuous
 62
     7
370
    25
100
AcDbLine
 10
183.5805823811
 20
147.2394247868
 30
0.0
 11
183.5805823811
 21
146.8394250006
 31
0.0
  0
LINE
  5
F6
330
1F
100
AcDbEntity
  8
0
  6
Continuous
 62
     7
370
    25
100
AcDbLine
 10
111.5817812988
 20
121.5394251377
 30
0.0
 11
183.5805823811
 21
121.5394251377
 31
0.0
  0
LINE
  5
F7
330
1F
100
AcDbEntity
  8
0
  6
Continuous
 62
     7
370
    25
100
AcDbLine
 10
183.5805823811
 20
121.5394251377
 30
0.0
 11
183.5805823811
 21
121.2394256473
 31
0.0
  0
LINE
  5
F8
330
1F
100
AcDbEntity
  8
0
  6
Continuous
 62
     7
370
    25
100
AcDbLine
 10
111.5817812988
 20
121.2394256473
 30
0.0
 11
111.5817812988
 21
121.5394251377
 31
0.0
  0
LINE
  5
F9
330
1F
100
AcDbEntity
  8
0
  6
Continuous
 62
     7
370
    25
100
AcDbLine
 10
183.5805823811
 20
120.5394249738
 30
0.0
 11
111.5817812988
 21
120.5394249738
 31
0.0
  0
LINE
  5
FA
330
1F
100
AcDbEntity
  8
0
  6
Continuous
 62
     7
370
    25
100
AcDbLine
 10
183.5805823811
 20
120.8394244641
 30
0.0
 11
183.5805823811
 21
120.5394249738
 31
0.0
  0
LINE
  5
FB
330
1F
100
AcDbEntity
  8
0
  6
Continuous
 62
     7
370
    25
100
AcDbLine
 10
111.5817812988
 20
120.5394249738
 30
0.0
 11
111.5817812988
 21
120.8394244641
 31
0.0
  0
LINE
  5
FC
330
1F
100
AcDbEntity
  8
0
  6
Continuous
 62
     7
370
    25
100
AcDbLine
 10
183.5805823811
 20
122.5394253016
 30
0.0
 11
111.5817812988
 21
122.5394253016
 31
0.0
  0
LINE
  5
FD
330
1F
100
AcDbEntity
  8
0
  6
Continuous
 62
     7
370
    25
100
AcDbLine
 10
111.5817812988
 20
122.5394253016
 30
0.0
 11
111.5817812988
 21
122.839424792
 31
0.0
  0
LINE
  5
FE
330
1F
100
AcDbEntity
  8
0
  6
Continuous
 62
     7
370
    25
100
AcDbLine
 10
183.5805823811
 20
122.839424792
 30
0.0
 11
183.5805823811
 21
122.5394253016
 31
0.0
  0
LINE
  5
FF
330
1F
100
AcDbEntity
  8
0
  6
Continuous
 62
     7
370
    25
100
AcDbLine
 10
111.5817812988
 20
123.5394254655
 30
0.0
 11
183.5805823811
 21
123.5394254655
 31
0.0
  0
LINE
  5
100
330
1F
100
AcDbEntity
  8
0
  6
Continuous
 62
     7
370
    25
100
AcDbLine
 10
111.5817812988
 20
123.2394241125
 30
0.0
 11
111.5817812988
 21
123.5394254655
 31
0.0
  0
LINE
  5
101
330
1F
100
AcDbEntity
  8
0
  6
Continuous
 62
     7
370
    25
100
AcDbLine
 10
183.5805823811
 20
123.5394254655
 30
0.0
 11
183.5805823811
 21
123.2394241125
 31
0.0
  0
LINE
  5
102
330
1F
100
AcDbEntity
  8
0
  6
Continuous
 62
     7
370
    25
100
AcDbLine
 10
111.5817812988
 20
143.2394248296
 30
0.0
 11
111.5817812988
 21
142.8394248106
 31
0.0
  0
LINE
  5
103
330
1F
100
AcDbEntity
  8
0
  6
Continuous
 62
     7
370
    25
100
AcDbLine
 10
183.5805823811
 20
143.2394248296
 30
0.0
 11
183.5805823811
 21
142.8394248106
 31
0.0
  0
LINE
  5
104
330
1F
100
AcDbEntity
  8
0
  6
Continuous
 62
     7
370
    25
100
AcDbLine
 10
183.5805823811
 20
128.5394244224
 30
0.0
 11
111.5817812988
 21
128.5394244224
 31
0.0
  0
LINE
  5
105
330
1F
100
AcDbEntity
  8
0
  6
Continuous
 62
     7
370
    25
100
AcDbLine
 10
111.5817812988
 20
128.5394244224
 30
0.0
 11
111.5817812988
 21
128.8394248441
 31
0.0
  0
LINE
  5
106
330
1F
100
AcDbEntity
  8
0
  6
Continuous
 62
     7
370
    25
100
AcDbLine
 10
183.5805823811
 20
128.8394248441
 30
0.0
 11
183.5805823811
 21
128.5394244224
 31
0.0
  0
LINE
  5
107
330
1F
100
AcDbEntity
  8
0
  6
Continuous
 62
     7
370
    25
100
AcDbLine
 10
111.5817812988
 20
129.5394245863
 30
0.0
 11
183.5805823811
 21
129.5394245863
 31
0.0
  0
LINE
  5
108
330
1F
100
AcDbEntity
  8
0
  6
Continuous
 62
     7
370
    25
100
AcDbLine
 10
111.5817812988
 20
129.239425096
 30
0.0
 11
111.5817812988
 21
129.5394245863
 31
0.0
  0
LINE
  5
109
330
1F
100
AcDbEntity
  8
0
  6
Continuous
 62
     7
370
    25
100
AcDbLine
 10
183.5805823811
 20
129.5394245863
 30
0.0
 11
183.5805823811
 21
129.239425096
 31
0.0
  0
LINE
  5
10A
330
1F
100
AcDbEntity
  8
0
  6
Continuous
 62
     7
370
    25
100
AcDbLine
 10
183.5805823811
 20
130.5394247502
 30
0.0
 11
111.5817812988
 21
130.5394247502
 31
0.0
  0
LINE
  5
10B
330
1F
100
AcDbEntity
  8
0
  6
Continuous
 62
     7
370
    25
100
AcDbLine
 10
111.5817812988
 20
130.5394247502
 30
0.0
 11
111.5817812988
 21
130.8394251719
 31
0.0
  0
LINE
  5
10C
330
1F
100
AcDbEntity
  8
0
  6
Continuous
 62
     7
370
    25
100
AcDbLine
 10
183.5805823811
 20
130.8394251719
 30
0.0
 11
183.5805823811
 21
130.5394247502
 31
0.0
  0
LINE
  5
10D
330
1F
100
AcDbEntity
  8
0
  6
Continuous
 62
     7
370
    25
100
AcDbLine
 10
111.5817812988
 20
131.5394249142
 30
0.0
 11
183.5805823811
 21
131.5394249142
 31
0.0
  0
LINE
  5
10E
330
1F
100
AcDbEntity
  8
0
  6
Continuous
 62
     7
370
    25
100
AcDbLine
 10
111.5817812988
 20
131.2394244925
 30
0.0
 11
111.5817812988
 21
131.5394249142
 31
0.0
  0
LINE
  5
10F
330
1F
100
AcDbEntity
  8
0
  6
Continuous
 62
     7
370
    25
100
AcDbLine
 10
183.5805823811
 20
131.5394249142
 30
0.0
 11
183.5805823811
 21
131.2394244925
 31
0.0
  0
LINE
  5
110
330
1F
100
AcDbEntity
  8
0
  6
Continuous
 62
     7
370
    25
100
AcDbLine
 10
183.5805823811
 20
145.2394249246
 30
0.0
 11
183.5805823811
 21
144.8394249056
 31
0.0
  0
LINE
  5
111
330
1F
100
AcDbEntity
  8
0
  6
Continuous
 62
     7
370
    25
100
AcDbLine
 10
111.5817812988
 20
145.2394249246
 30
0.0
 11
111.5817812988
 21
144.8394249056
 31
0.0
  0
LINE
  5
112
330
1F
100
AcDbEntity
  8
0
  6
Continuous
 62
     7
370
    25
100
AcDbLine
 10
111.5817812988
 20
141.239424851
 30
0.0
 11
111.5817812988
 21
140.839424832
 31
0.0
  0
LINE
  5
113
330
1F
100
AcDbEntity
  8
0
  6
Continuous
 62
     7
370
    25
100
AcDbLine
 10
183.5805823811
 20
141.239424851
 30
0.0
 11
183.5805823811
 21
140.839424832
 31
0.0
  0
ARC
  5
114
330
1F
100
AcDbEntity
  8
0
  6
Continuous
 62
     7
370
    25
100
AcDbCircle
 10
179.9811826893
 20
138.0394248427
 30
0.0
 40
0.8500000000000227
100
AcDbArc
 50
0.0
 51
180.0
  0
ARC
  5
115
330
1F
100
AcDbEntity
  8
0
  6
Continuous
 62
     7
370
    25
100
AcDbCircle
 10
179.9811826893
 20
138.0394248427
 30
0.0
 40
0.8500000000000227
100
AcDbArc
 50
180.0
 51
0.0
  0
ARC
  5
116
330
1F
100
AcDbEntity
  8
0
  6
Continuous
 62
     7
370
    25
100
AcDbCircle
 10
115.1811826893
 20
138.0394248427
 30
0.0
 40
0.8500000000000085
100
AcDbArc
 50
0.0
 51
180.0
  0
ARC
  5
117
330
1F
100
AcDbEntity
  8
0
  6
Continuous
 62
     7
370
    25
100
AcDbCircle
 10
115.1811826893
 20
138.0394248427
 30
0.0
 40
0.8500000000000085
100
AcDbArc
 50
180.0
 51
0.0
  0
LINE
  5
118
330
1F
100
AcDbEntity
  8
0
  6
Continuous
 62
     7
370
    25
100
AcDbLine
 10
111.5817812988
 20
139.5394248285
 30
0.0
 11
111.5817812988
 21
136.5394248024
 31
0.0
  0
LINE
  5
119
330
1F
100
AcDbEntity
  8
0
  6
Continuous
 62
     7
370
    25
100
AcDbLine
 10
183.5805823811
 20
136.5394248024
 30
0.0
 11
183.5805823811
 21
139.5394248285
 31
0.0
  0
LINE
  5
11A
330
1F
100
AcDbEntity
  8
0
  6
Continuous
 62
     7
370
    25
100
AcDbLine
 10
111.5817812988
 20
136.5394248024
 30
0.0
 11
183.5805823811
 21
136.5394248024
 31
0.0
  0
LINE
  5
11B
330
1F
100
AcDbEntity
  8
0
  6
Continuous
 62
     7
370
    25
100
AcDbLine
 10
183.5805823811
 20
139.5394248285
 30
0.0
 11
111.5817812988
 21
139.5394248285
 31
0.0
  0
ARC
  5
11C
330
1F
100
AcDbEntity
  8
0
  6
Continuous
 62
     7
370
    25
100
AcDbCircle
 10
185.5806326893
 20
115.864125357
 30
0.0
 40
0.8500000000000227
100
AcDbArc
 50
0.0
 51
180.0
  0
ARC
  5
11D
330
1F
100
AcDbEntity
  8
0
  6
Continuous
 62
     7
370
    25
100
AcDbCircle
 10
125.3317826914
 20
157.1874134276
 30
0.0
 40
1.0
100
AcDbArc
 50
180.0
 51
270.0
  0
LINE
  5
11E
330
1F
100
AcDbEntity
  8
0
  6
Continuous
 62
     7
370
    25
100
AcDbLine
 10
125.3317830869
 20
156.1874132932
 30
0.0
 11
168.8305822917
 21
156.1874132932
 31
0.0
  0
ARC
  5
11F
330
1F
100
AcDbEntity
  8
0
  6
Continuous
 62
     7
370
    25
100
AcDbCircle
 10
168.8305826872
 20
157.1874134276
 30
0.0
 40
1.0
100
AcDbArc
 50
270.0
 51
0.0
  0
LINE
  5
120
330
1F
100
AcDbEntity
  8
0
  6
Continuous
 62
     7
370
    25
100
AcDbLine
 10
169.8305824556
 20
161.1874141127
 30
0.0
 11
169.8305824556
 21
157.1874134571
 31
0.0
  0
LINE
  5
121
330
1F
100
AcDbEntity
  8
0
  6
Continuous
 62
     7
370
    25
100
AcDbLine
 10
173.3304833778
 20
157.1874134571
 30
0.0
 11
173.3304833778
 21
161.1874141127
 31
0.0
  0
ARC
  5
122
330
1F
100
AcDbEntity
  8
0
  6
Continuous
 62
     7
370
    25
100
AcDbCircle
 10
174.3304826872
 20
157.1874134276
 30
0.0
 40
1.0
100
AcDbArc
 50
180.0
 51
270.0
  0
ARC
  5
123
330
1F
100
AcDbEntity
  8
0
  6
Continuous
 62
     7
370
    25
100
AcDbCircle
 10
185.5805826893
 20
125.2072507069
 30
0.0
 40
1.5
100
AcDbArc
 50
180.0
 51
201.9999999995
  0
ARC
  5
124
330
1F
100
AcDbEntity
  8
0
  6
Continuous
 62
     7
370
    25
100
AcDbCircle
 10
183.0805826893
 20
155.1874134276
 30
0.0
 40
1.000000000000028
100
AcDbArc
 50
0.0
 51
90.0
  0
LINE
  5
125
330
1F
100
AcDbEntity
  8
0
  6
Continuous
 62
     7
370
    25
100
AcDbLine
 10
112.081782312
 20
156.1874132932
 30
0.0
 11
119.8318818369
 21
156.1874132932
 31
0.0
  0
ARC
  5
126
330
1F
100
AcDbEntity
  8
0
  6
Continuous
 62
     7
370
    25
100
AcDbCircle
 10
119.8318826914
 20
157.1874134276
 30
0.0
 40
1.0
100
AcDbArc
 50
270.0
 51
0.0
  0
ARC
  5
127
330
1F
100
AcDbEntity
  8
0
  6
Continuous
 62
     7
370
    25
100
AcDbCircle
 10
122.5818326914
 20
161.1874134276
 30
0.0
 40
1.749949999999998
100
AcDbArc
 50
0.0
 51
180.0
  0
ARC
  5
128
330
1F
100
AcDbEntity
  8
0
  6
Continuous
 62
     7
370
    25
100
AcDbCircle
 10
122.5806326872
 20
161.1874134275
 30
0.0
 40
0.8500000000000085
100
AcDbArc
 50
0.0
 51
180.0
  0
ARC
  5
129
330
1F
100
AcDbEntity
  8
0
  6
Continuous
 62
     7
370
    25
100
AcDbCircle
 10
171.5805326872
 20
161.1874134276
 30
0.0
 40
0.8499999999999943
100
AcDbArc
 50
0.0
 51
180.0
  0
LINE
  5
12A
330
1F
100
AcDbEntity
  8
0
  6
Continuous
 62
     7
370
    25
100
AcDbLine
 10
113.3776506194
 20
119.8914368034
 30
0.0
 11
180.7847147592
 21
119.8914368034
 31
0.0
  0
LINE
  5
12B
330
1F
100
AcDbEntity
  8
0
  6
Continuous
 62
     7
370
    25
100
AcDbLine
 10
124.331782923
 20
157.1874134571
 30
0.0
 11
124.331782923
 21
161.1874141127
 31
0.0
  0
LINE
  5
12C
330
1F
100
AcDbEntity
  8
0
  6
Continuous
 62
     7
370
    25
100
AcDbLine
 10
174.3304835417
 20
156.1874132932
 30
0.0
 11
183.0805813678
 21
156.1874132932
 31
0.0
  0
ARC
  5
12D
330
1F
100
AcDbEntity
  8
0
  6
Continuous
 62
     7
370
    25
100
AcDbCircle
 10
112.0817826893
 20
155.1874134276
 30
0.0
 40
1.0
100
AcDbArc
 50
90.0
 51
180.0
  0
ARC
  5
12E
330
1F
100
AcDbEntity
  8
0
  6
Continuous
 62
     7
370
    25
100
AcDbCircle
 10
108.5817326893
 20
115.864125357
 30
0.0
 40
1.999950000000145
100
AcDbArc
 50
158.0000000003
 51
338.0000000005
  0
LINE
  5
12F
330
1F
100
AcDbEntity
  8
0
  6
Continuous
 62
     7
370
    25
100
AcDbLine
 10
109.4402981707
 20
123.3279519111
 30
0.0
 11
106.7274113902
 21
116.6133191765
 31
0.0
  0
ARC
  5
130
330
1F
100
AcDbEntity
  8
0
  6
Continuous
 62
     7
370
    25
100
AcDbCircle
 10
111.7582587755
 20
122.3914362578
 30
0.0
 40
2.499999999999957
100
AcDbArc
 50
118.6196648242
 51
157.9999999997
  0
ARC
  5
131
330
1F
100
AcDbEntity
  8
0
  6
Continuous
 62
     7
370
    25
100
AcDbCircle
 10
110.0817826893
 20
125.4638014595
 30
0.0
 40
1.000000000000009
100
AcDbArc
 50
298.6196648241
 51
0.0
  0
LINE
  5
132
330
1F
100
AcDbEntity
  8
0
  6
Continuous
 62
     7
370
    25
100
AcDbLine
 10
111.0817840108
 20
125.4638005376
 30
0.0
 11
111.0817840108
 21
155.1874131292
 31
0.0
  0
ARC
  5
133
330
1F
100
AcDbEntity
  8
0
  6
Continuous
 62
     7
370
    25
100
AcDbCircle
 10
180.7847151319
 20
118.3914362578
 30
0.0
 40
1.500000000000064
100
AcDbArc
 50
21.9999999995
 51
90.0
  0
LINE
  5
134
330
1F
100
AcDbEntity
  8
0
  6
Continuous
 62
     7
370
    25
100
AcDbLine
 10
184.0805833944
 20
125.2072509706
 30
0.0
 11
184.0805833944
 21
155.1874131292
 31
0.0
  0
ARC
  5
135
330
1F
100
AcDbEntity
  8
0
  6
Continuous
 62
     7
370
    25
100
AcDbCircle
 10
122.5806326872
 20
161.1874134275
 30
0.0
 40
0.8500000000000085
100
AcDbArc
 50
180.0
 51
0.0
  0
LINE
  5
136
330
1F
100
AcDbEntity
  8
0
  6
Continuous
 62
     7
370
    25
100
AcDbLine
 10
110.4360533663
 20
115.11493105
 30
0.0
 11
111.9868730911
 21
118.9533453763
 31
0.0
  0
ARC
  5
137
330
1F
100
AcDbEntity
  8
0
  6
Continuous
 62
     7
370
    25
100
AcDbCircle
 10
171.5805326872
 20
161.1874134276
 30
0.0
 40
0.8499999999999943
100
AcDbArc
 50
180.0
 51
0.0
  0
ARC
  5
138
330
1F
100
AcDbEntity
  8
0
  6
Continuous
 62
     7
370
    25
100
AcDbCircle
 10
185.5806326893
 20
115.864125357
 30
0.0
 40
1.999950000000013
100
AcDbArc
 50
0.0
 51
22.0
  0
ARC
  5
139
330
1F
100
AcDbEntity
  8
0
  6
Continuous
 62
     7
370
    25
100
AcDbCircle
 10
108.5806326893
 20
115.8641253573
 30
0.0
 40
0.8500000000000227
100
AcDbArc
 50
0.0
 51
180.0
  0
ARC
  5
13A
330
1F
100
AcDbEntity
  8
0
  6
Continuous
 62
     7
370
    25
100
AcDbCircle
 10
185.5806326893
 20
115.864125357
 30
0.0
 40
1.999950000000013
100
AcDbArc
 50
202.0000000003
 51
0.0
  0
LINE
  5
13B
330
1F
100
AcDbEntity
  8
0
  6
Continuous
 62
     7
370
    25
100
AcDbLine
 10
182.1754922875
 20
118.9533453763
 30
0.0
 11
183.7263120123
 21
115.11493105
 31
0.0
  0
LINE
  5
13C
330
1F
100
AcDbEntity
  8
0
  6
Continuous
 62
     7
370
    25
100
AcDbLine
 10
187.4349539884
 20
116.6133191765
 30
0.0
 11
184.1898051807
 21
124.6453412205
 31
0.0
  0
ARC
  5
13D
330
1F
100
AcDbEntity
  8
0
  6
Continuous
 62
     7
370
    25
100
AcDbCircle
 10
185.5806326893
 20
115.864125357
 30
0.0
 40
0.8500000000000227
100
AcDbArc
 50
180.0
 51
0.0
  0
LINE
  5
13E
330
1F
100
AcDbEntity
  8
0
  6
Continuous
 62
     7
370
    25
100
AcDbLine
 10
120.8318820008
 20
161.1874141127
 30
0.0
 11
120.8318820008
 21
157.1874134571
 31
0.0
  0
ARC
  5
13F
330
1F
100
AcDbEntity
  8
0
  6
Continuous
 62
     7
370
    25
100
AcDbCircle
 10
171.5805326872
 20
161.1874134276
 30
0.0
 40
1.749950000000013
100
AcDbArc
 50
0.0
 51
180.0
  0
ARC
  5
140
330
1F
100
AcDbEntity
  8
0
  6
Continuous
 62
     7
370
    25
100
AcDbCircle
 10
108.5806326893
 20
115.8641253573
 30
0.0
 40
0.8500000000000227
100
AcDbArc
 50
180.0
 51
0.0
  0
ARC
  5
141
330
1F
100
AcDbEntity
  8
0
  6
Continuous
 62
     7
370
    25
100
AcDbCircle
 10
113.3776502467
 20
118.3914362578
 30
0.0
 40
1.5
100
AcDbArc
 50
90.0
 51
157.9999999995
  0
ARC
  5
142
330
1F
100
AcDbEntity
  8
0
  6
Continuous
 62
     7
370
    25
100
AcDbCircle
 10
108.5806326893
 20
115.8641253573
 30
0.0
 40
2.001049999994989
100
AcDbArc
 50
180.0
 51
338.5126488419
  0
ARC
  5
143
330
1F
100
AcDbEntity
  8
0
  6
Continuous
 62
     7
370
    25
100
AcDbCircle
 10
108.5806326893
 20
115.8641253573
 30
0.0
 40
2.001049999994947
100
AcDbArc
 50
155.3624242824
 51
180.0
  0
LINE
  5
144
330
1F
100
AcDbEntity
  8
_U+56FE_U+5C42_1
100
AcDbLine
 10
122.5818326914
 20
162.9373634276
 30
0.0
 11
122.5818326914
 21
113.864175357
 31
0.0
  0
LINE
  5
145
330
1F
100
AcDbEntity
  8
_U+56FE_U+5C42_1
100
AcDbLine
 10
122.5818326914
 20
113.864175357
 30
0.0
 11
108.5817326893
 21
113.864175357
 31
0.0
  0
DIMENSION
  5
146
330
1F
100
AcDbEntity
  8
0
  6
Continuous
 62
     7
370
    18
100
AcDbDimension
  2
_D
 10
100.5779219865
 20
113.864175357
 30
0.0
 11
100.5779219865
 21
138.9104133383
 31
0.0
 70
   160
  1
<>
 71
     2
 42
-1.0
  3
SLDDIMSTYLE0
100
AcDbAlignedDimension
 13
122.5818326914
 23
162.9373634276
 33
0.0
 14
122.5818326914
 24
113.864175357
 34
0.0
 50
90.0
100
AcDbRotatedDimension
  0
DIMENSION
  5
152
330
1F
100
AcDbEntity
  8
0
  6
Continuous
 62
     7
370
    18
100
AcDbDimension
  2
_D_1
 10
106.0957448979
 20
156.1874134276
 30
0.0
 11
106.0957448979
 21
159.425436006
 31
0.0
 70
   160
  1
<>
 71
     2
 42
-1.0
  3
SLDDIMSTYLE1
100
AcDbAlignedDimension
 13
122.5818326914
 23
162.9373634276
 33
0.0
 14
112.0817826893
 24
156.1874134276
 34
0.0
 50
90.0
100
AcDbRotatedDimension
  0
DIMENSION
  5
15F
330
1F
100
AcDbEntity
  8
0
  6
Continuous
 62
     7
370
    18
100
AcDbDimension
  2
_D_2
 10
124.3317826914
 20
168.961599156
 30
0.0
 11
133.6782423342
 21
168.961599156
 31
0.0
 70
   160
  1
<>
 71
     2
 42
-1.0
  3
SLDDIMSTYLE2
100
AcDbAlignedDimension
 13
120.8318826914
 23
161.1874134276
 33
0.0
 14
124.3317826914
 24
161.1874134276
 34
0.0
100
AcDbRotatedDimension
  0
DIMENSION
  5
16C
330
1F
100
AcDbEntity
  8
0
  6
Continuous
 62
     7
370
    18
100
AcDbDimension
  2
_D_3
 10
184.0805826893
 20
107.6197754526
 30
0.0
 11
147.2845165396
 21
107.6197754526
 31
0.0
 70
   160
  1
<>
 71
     2
 42
-1.0
  3
SLDDIMSTYLE3
100
AcDbAlignedDimension
 13
111.0817826893
 23
125.4638014595
 33
0.0
 14
184.0805826893
 24
125.2072507069
 34
0.0
100
AcDbRotatedDimension
  0
DIMENSION
  5
177
330
1F
100
AcDbEntity
  8
0
  6
Continuous
 62
     7
370
    18
100
AcDbDimension
  2
_D_4
 10
195.9502311269
 20
119.8914362578
 30
0.0
 11
195.9502311269
 21
137.7591267509
 31
0.0
 70
   160
  1
<>
 71
     2
 42
-1.0
  3
SLDDIMSTYLE3
100
AcDbAlignedDimension
 13
183.0805826893
 23
156.1874134276
 33
0.0
 14
180.7847151319
 24
119.8914362578
 34
0.0
 50
90.0
100
AcDbRotatedDimension
  0
INSERT
  5
18C
330
1F
100
AcDbEntity
  8
0
  6
Continuous
 62
     7
370
     0
100
AcDbBlockReference
  2
SW_CENTERMARKSYMBOL_0
 10
171.5805326872
 20
161.1874134276
 30
0.0
  0
INSERT
  5
198
330
1F
100
AcDbEntity
  8
0
  6
Continuous
 62
     7
370
     0
100
AcDbBlockReference
  2
SW_CENTERMARKSYMBOL_1
 10
115.1811826893
 20
138.0394248427
 30
0.0
  0
INSERT
  5
1A4
330
1F
100
AcDbEntity
  8
0
  6
Continuous
 62
     7
370
     0
100
AcDbBlockReference
  2
SW_CENTERMARKSYMBOL_2
 10
179.9811826893
 20
138.0394248427
 30
0.0
  0
INSERT
  5
1B0
330
1F
100
AcDbEntity
  8
0
  6
Continuous
 62
     7
370
     0
100
AcDbBlockReference
  2
SW_CENTERMARKSYMBOL_3
 10
185.5806326893
 20
115.864125357
 30
0.0
  0
INSERT
  5
1BC
330
1F
100
AcDbEntity
  8
0
  6
Continuous
 62
     7
370
     0
100
AcDbBlockReference
  2
SW_CENTERMARKSYMBOL_4
 10
122.5806326872
 20
161.1874134275
 30
0.0
  0
INSERT
  5
1C8
330
1F
100
AcDbEntity
  8
0
  6
Continuous
 62
     7
370
     0
100
AcDbBlockReference
  2
SW_CENTERMARKSYMBOL_5
 10
108.5806326893
 20
115.8641253573
 30
0.0
  0
LINE
  5
1C9
330
1F
100
AcDbEntity
  8
0
  6
Continuous
 62
     7
370
    25
100
AcDbLine
 10
106.5817823418
 20
81.6802988764
 30
0.0
 11
106.5817823418
 21
80.3802987564
 31
0.0
  0
LINE
  5
1CA
330
1F
100
AcDbEntity
  8
0
  6
Continuous
 62
     7
370
    25
100
AcDbLine
 10
110.5816824146
 20
78.3802988943
 30
0.0
 11
106.5795844206
 21
78.3802988943
 31
0.0
  0
LINE
  5
1CB
330
1F
100
AcDbEntity
  8
0
  6
Continuous
 62
     7
370
    25
100
AcDbLine
 10
106.5795844206
 20
80.3802987564
 30
0.0
 11
106.5795844206
 21
78.3802988943
 31
0.0
  0
LINE
  5
1CC
330
1F
100
AcDbEntity
  8
0
  6
Continuous
 62
     7
370
    25
100
AcDbLine
 10
110.4426061519
 20
80.3802987564
 30
0.0
 11
106.5795844206
 21
80.3802987564
 31
0.0
  0
LINE
  5
1CD
330
1F
100
AcDbEntity
  8
0
  6
Continuous
 62
     7
370
    25
100
AcDbLine
 10
110.5816824146
 20
80.3802987564
 30
0.0
 11
110.5816824146
 21
78.3802988943
 31
0.0
  0
LINE
  5
1CE
330
1F
100
AcDbEntity
  8
0
  6
Continuous
 62
     7
370
    25
100
AcDbLine
 10
183.7263120123
 20
81.6802988764
 30
0.0
 11
183.7263120123
 21
80.3802987564
 31
0.0
  0
LINE
  5
1CF
330
1F
100
AcDbEntity
  8
0
  6
Continuous
 62
     7
370
    25
100
AcDbLine
 10
187.5805830368
 20
81.6802988764
 30
0.0
 11
183.7263120123
 21
81.6802988764
 31
0.0
  0
LINE
  5
1D0
330
1F
100
AcDbEntity
  8
0
  6
Continuous
 62
     7
370
    25
100
AcDbLine
 10
187.5805830368
 20
78.3802988943
 30
0.0
 11
187.5805830368
 21
81.6802988764
 31
0.0
  0
LINE
  5
1D1
330
1F
100
AcDbEntity
  8
0
  6
Continuous
 62
     7
370
    25
100
AcDbLine
 10
187.5805830368
 20
78.3802988943
 30
0.0
 11
183.580682964
 21
78.3802988943
 31
0.0
  0
LINE
  5
1D2
330
1F
100
AcDbEntity
  8
0
  6
Continuous
 62
     7
370
    25
100
AcDbLine
 10
183.580682964
 20
78.3802988943
 30
0.0
 11
183.580682964
 21
80.3802987564
 31
0.0
  0
LINE
  5
1D3
330
1F
100
AcDbEntity
  8
0
  6
Continuous
 62
     7
370
    25
100
AcDbLine
 10
110.4360533663
 20
81.6802988764
 30
0.0
 11
106.5817823418
 21
81.6802988764
 31
0.0
  0
LINE
  5
1D4
330
1F
100
AcDbEntity
  8
0
  6
Continuous
 62
     7
370
    25
100
AcDbLine
 10
110.4360533663
 20
80.3802987564
 30
0.0
 11
110.4360533663
 21
81.6802988764
 31
0.0
  0
LINE
  5
1D5
330
1F
100
AcDbEntity
  8
0
  6
Continuous
 62
     7
370
    25
100
AcDbLine
 10
183.7263120123
 20
80.3802987564
 30
0.0
 11
182.1754922875
 21
80.3802987564
 31
0.0
  0
LINE
  5
1D6
330
1F
100
AcDbEntity
  8
0
  6
Continuous
 62
     7
370
    25
100
AcDbLine
 10
182.1754922875
 20
81.6802988764
 30
0.0
 11
182.1754922875
 21
80.3802987564
 31
0.0
  0
LINE
  5
1D7
330
1F
100
AcDbEntity
  8
0
  6
Continuous
 62
     7
370
    25
100
AcDbLine
 10
182.1754922875
 20
81.6802988764
 30
0.0
 11
183.7263120123
 21
81.6802988764
 31
0.0
  0
LINE
  5
1D8
330
1F
100
AcDbEntity
  8
0
  6
Continuous
 62
     7
370
    25
100
AcDbLine
 10
111.9868730911
 20
81.6802988764
 30
0.0
 11
111.9868730911
 21
80.3802987564
 31
0.0
  0
LINE
  5
1D9
330
1F
100
AcDbEntity
  8
0
  6
Continuous
 62
     7
370
    25
100
AcDbLine
 10
111.9868730911
 20
80.3802987564
 30
0.0
 11
110.4426061519
 21
80.3802987564
 31
0.0
  0
LINE
  5
1DA
330
1F
100
AcDbEntity
  8
0
  6
Continuous
 62
     7
370
    25
100
AcDbLine
 10
110.4360533663
 20
81.6802988764
 30
0.0
 11
111.9868730911
 21
81.6802988764
 31
0.0
  0
LINE
  5
1DB
330
1F
100
AcDbEntity
  8
0
  6
Continuous
 62
     7
370
    25
100
AcDbLine
 10
180.7847147592
 20
81.6802988764
 30
0.0
 11
180.7847147592
 21
80.3802987564
 31
0.0
  0
LINE
  5
1DC
330
1F
100
AcDbEntity
  8
0
  6
Continuous
 62
     7
370
    25
100
AcDbLine
 10
182.1754922875
 20
80.3802987564
 30
0.0
 11
180.7847147592
 21
80.3802987564
 31
0.0
  0
LINE
  5
1DD
330
1F
100
AcDbEntity
  8
0
  6
Continuous
 62
     7
370
    25
100
AcDbLine
 10
180.7847147592
 20
81.6802988764
 30
0.0
 11
182.1754922875
 21
81.6802988764
 31
0.0
  0
LINE
  5
1DE
330
1F
100
AcDbEntity
  8
0
  6
Continuous
 62
     7
370
    25
100
AcDbLine
 10
113.3776506194
 20
81.6802988764
 30
0.0
 11
113.3776506194
 21
80.3802987564
 31
0.0
  0
LINE
  5
1DF
330
1F
100
AcDbEntity
  8
0
  6
Continuous
 62
     7
370
    25
100
AcDbLine
 10
113.3776506194
 20
80.3802987564
 30
0.0
 11
111.9868730911
 21
80.3802987564
 31
0.0
  0
LINE
  5
1E0
330
1F
100
AcDbEntity
  8
0
  6
Continuous
 62
     7
370
    25
100
AcDbLine
 10
111.9868730911
 20
81.6802988764
 30
0.0
 11
113.3776506194
 21
81.6802988764
 31
0.0
  0
LINE
  5
1E1
330
1F
100
AcDbEntity
  8
0
  6
Continuous
 62
     7
370
    25
100
AcDbLine
 10
180.7847147592
 20
80.3802987564
 30
0.0
 11
113.3776506194
 21
80.3802987564
 31
0.0
  0
LINE
  5
1E2
330
1F
100
AcDbEntity
  8
0
  6
Continuous
 62
     7
370
    25
100
AcDbLine
 10
113.3776506194
 20
81.6802988764
 30
0.0
 11
180.7847147592
 21
81.6802988764
 31
0.0
  0
LINE
  5
1E3
330
1F
100
AcDbEntity
  8
0
  6
Continuous
 62
     7
370
    25
100
AcDbLine
 10
111.5817812988
 20
87.2802987349
 30
0.0
 11
183.5805823811
 21
87.2802987349
 31
0.0
  0
LINE
  5
1E4
330
1F
100
AcDbEntity
  8
0
  6
Continuous
 62
     7
370
    25
100
AcDbLine
 10
111.5817812988
 20
81.6802988764
 30
0.0
 11
111.5817812988
 21
87.2802987349
 31
0.0
  0
LINE
  5
1E5
330
1F
100
AcDbEntity
  8
0
  6
Continuous
 62
     7
370
    25
100
AcDbLine
 10
183.5805823811
 20
87.2802987349
 30
0.0
 11
183.5805823811
 21
81.6802988764
 31
0.0
  0
LINE
  5
1E6
330
1F
100
AcDbEntity
  8
0
  6
Continuous
 62
     7
370
    25
100
AcDbLine
 10
120.8318820008
 20
78.3802988943
 30
0.0
 11
124.331782923
 21
78.3802988943
 31
0.0
  0
LINE
  5
1E7
330
1F
100
AcDbEntity
  8
0
  6
Continuous
 62
     7
370
    25
100
AcDbLine
 10
120.8318820008
 20
80.3802987564
 30
0.0
 11
120.8318820008
 21
78.3802988943
 31
0.0
  0
LINE
  5
1E8
330
1F
100
AcDbEntity
  8
0
  6
Continuous
 62
     7
370
    25
100
AcDbLine
 10
124.331782923
 20
78.3802988943
 30
0.0
 11
124.331782923
 21
80.3802987564
 31
0.0
  0
LINE
  5
1E9
330
1F
100
AcDbEntity
  8
0
  6
Continuous
 62
     7
370
    25
100
AcDbLine
 10
169.8305824556
 20
78.3802988943
 30
0.0
 11
173.3304833778
 21
78.3802988943
 31
0.0
  0
LINE
  5
1EA
330
1F
100
AcDbEntity
  8
0
  6
Continuous
 62
     7
370
    25
100
AcDbLine
 10
169.8305824556
 20
80.3802987564
 30
0.0
 11
169.8305824556
 21
78.3802988943
 31
0.0
  0
LINE
  5
1EB
330
1F
100
AcDbEntity
  8
0
  6
Continuous
 62
     7
370
    25
100
AcDbLine
 10
173.3304833778
 20
80.3802987564
 30
0.0
 11
173.3304833778
 21
78.3802988943
 31
0.0
  0
DIMENSION
  5
1EC
330
1F
100
AcDbEntity
  8
0
  6
Continuous
 62
     7
370
    18
100
AcDbDimension
  2
_D_5
 10
187.5805826893
 20
92.7735423369
 30
0.0
 11
146.5563053463
 21
92.7735423369
 31
0.0
 70
   160
  1
<>
 71
     2
 42
-1.0
  3
SLDDIMSTYLE3
100
AcDbAlignedDimension
 13
106.5795826893
 23
80.3802987587
 33
0.0
 14
187.5805826893
 24
81.6802987587
 34
0.0
 50
0.0
100
AcDbRotatedDimension
  0
LINE
  5
1F6
330
1F
100
AcDbEntity
  8
0
  6
Continuous
 62
     7
370
    25
100
AcDbLine
 10
229.7890282438
 20
113.8641760081
 30
0.0
 11
233.0890282259
 21
113.8641760081
 31
0.0
  0
LINE
  5
1F7
330
1F
100
AcDbEntity
  8
0
  6
Continuous
 62
     7
370
    25
100
AcDbLine
 10
233.0890282259
 20
117.864076081
 30
0.0
 11
231.0890283637
 21
117.864076081
 31
0.0
  0
LINE
  5
1F8
330
1F
100
AcDbEntity
  8
0
  6
Continuous
 62
     7
370
    25
100
AcDbLine
 10
233.0890282259
 20
162.9373636425
 30
0.0
 11
229.7890282438
 21
162.9373636425
 31
0.0
  0
LINE
  5
1F9
330
1F
100
AcDbEntity
  8
0
  6
Continuous
 62
     7
370
    25
100
AcDbLine
 10
231.0890283637
 20
159.4374627203
 30
0.0
 11
233.0890282259
 21
159.4374627203
 31
0.0
  0
LINE
  5
1FA
330
1F
100
AcDbEntity
  8
0
  6
Continuous
 62
     7
370
    25
100
AcDbLine
 10
233.0890282259
 20
117.8651750416
 30
0.0
 11
231.0890283637
 21
117.8651750416
 31
0.0
  0
LINE
  5
1FB
330
1F
100
AcDbEntity
  8
0
  6
Continuous
 62
     7
370
    25
100
AcDbLine
 10
231.0890283637
 20
113.8630751849
 30
0.0
 11
233.0890282259
 21
113.8630751849
 31
0.0
  0
LINE
  5
1FC
330
1F
100
AcDbEntity
  8
0
  6
Continuous
 62
     7
370
    25
100
AcDbLine
 10
229.7890282438
 20
115.8641260445
 30
0.0
 11
229.7890282438
 21
113.8641760081
 31
0.0
  0
LINE
  5
1FD
330
1F
100
AcDbEntity
  8
0
  6
Continuous
 62
     7
370
    25
100
AcDbLine
 10
233.0890282259
 20
115.8641260445
 30
0.0
 11
229.7890282438
 21
115.8641260445
 31
0.0
  0
LINE
  5
1FE
330
1F
100
AcDbEntity
  8
0
  6
Continuous
 62
     7
370
    25
100
AcDbLine
 10
233.0890282259
 20
115.8641260445
 30
0.0
 11
233.0890282259
 21
113.8641760081
 31
0.0
  0
LINE
  5
1FF
330
1F
100
AcDbEntity
  8
0
  6
Continuous
 62
     7
370
    25
100
AcDbLine
 10
229.7890282438
 20
116.6133191765
 30
0.0
 11
229.7890282438
 21
115.8641260445
 31
0.0
  0
LINE
  5
200
330
1F
100
AcDbEntity
  8
0
  6
Continuous
 62
     7
370
    25
100
AcDbLine
 10
231.0890283637
 20
116.6133191765
 30
0.0
 11
229.7890282438
 21
116.6133191765
 31
0.0
  0
LINE
  5
201
330
1F
100
AcDbEntity
  8
0
  6
Continuous
 62
     7
370
    25
100
AcDbLine
 10
233.0890282259
 20
117.864076081
 30
0.0
 11
233.0890282259
 21
115.8641260445
 31
0.0
  0
LINE
  5
202
330
1F
100
AcDbEntity
  8
0
  6
Continuous
 62
     7
370
    25
100
AcDbLine
 10
231.0890283637
 20
124.6453412205
 30
0.0
 11
231.0890283637
 21
116.6133191765
 31
0.0
  0
LINE
  5
203
330
1F
100
AcDbEntity
  8
0
  6
Continuous
 62
     7
370
    25
100
AcDbLine
 10
229.7890282438
 20
124.6453412205
 30
0.0
 11
231.0890283637
 21
124.6453412205
 31
0.0
  0
LINE
  5
204
330
1F
100
AcDbEntity
  8
0
  6
Continuous
 62
     7
370
    25
100
AcDbLine
 10
229.7890282438
 20
116.6133191765
 30
0.0
 11
229.7890282438
 21
124.6453412205
 31
0.0
  0
LINE
  5
205
330
1F
100
AcDbEntity
  8
0
  6
Continuous
 62
     7
370
    25
100
AcDbLine
 10
231.0890283637
 20
125.2072509706
 30
0.0
 11
229.7890282438
 21
125.2072509706
 31
0.0
  0
LINE
  5
206
330
1F
100
AcDbEntity
  8
0
  6
Continuous
 62
     7
370
    25
100
AcDbLine
 10
231.0890283637
 20
125.2072509706
 30
0.0
 11
231.0890283637
 21
124.6453412205
 31
0.0
  0
LINE
  5
207
330
1F
100
AcDbEntity
  8
0
  6
Continuous
 62
     7
370
    25
100
AcDbLine
 10
229.7890282438
 20
124.6453412205
 30
0.0
 11
229.7890282438
 21
125.2072509706
 31
0.0
  0
LINE
  5
208
330
1F
100
AcDbEntity
  8
0
  6
Continuous
 62
     7
370
    25
100
AcDbLine
 10
231.0890283637
 20
156.1874132932
 30
0.0
 11
229.7890282438
 21
156.1874132932
 31
0.0
  0
LINE
  5
209
330
1F
100
AcDbEntity
  8
0
  6
Continuous
 62
     7
370
    25
100
AcDbLine
 10
229.7890282438
 20
155.1874131292
 30
0.0
 11
231.0890283637
 21
155.1874131292
 31
0.0
  0
LINE
  5
20A
330
1F
100
AcDbEntity
  8
0
  6
Continuous
 62
     7
370
    25
100
AcDbLine
 10
231.0890283637
 20
156.1874132932
 30
0.0
 11
231.0890283637
 21
155.1874131292
 31
0.0
  0
LINE
  5
20B
330
1F
100
AcDbEntity
  8
0
  6
Continuous
 62
     7
370
    25
100
AcDbLine
 10
229.7890282438
 20
156.1874132932
 30
0.0
 11
229.7890282438
 21
155.1874131292
 31
0.0
  0
LINE
  5
20C
330
1F
100
AcDbEntity
  8
0
  6
Continuous
 62
     7
370
    25
100
AcDbLine
 10
231.0890283637
 20
155.1874131292
 30
0.0
 11
231.0890283637
 21
125.2072509706
 31
0.0
  0
LINE
  5
20D
330
1F
100
AcDbEntity
  8
0
  6
Continuous
 62
     7
370
    25
100
AcDbLine
 10
229.7890282438
 20
125.2072509706
 30
0.0
 11
229.7890282438
 21
155.1874131292
 31
0.0
  0
LINE
  5
20E
330
1F
100
AcDbEntity
  8
0
  6
Continuous
 62
     7
370
    25
100
AcDbLine
 10
229.7890282438
 20
121.5394251377
 30
0.0
 11
224.1890283852
 21
121.2394256473
 31
0.0
  0
LINE
  5
20F
330
1F
100
AcDbEntity
  8
0
  6
Continuous
 62
     7
370
    25
100
AcDbLine
 10
224.1890283852
 20
120.8394244641
 30
0.0
 11
229.7890282438
 21
120.5394249738
 31
0.0
  0
LINE
  5
210
330
1F
100
AcDbEntity
  8
0
  6
Continuous
 62
     7
370
    25
100
AcDbLine
 10
224.1890283852
 20
121.2394256473
 30
0.0
 11
224.1890283852
 21
120.8394244641
 31
0.0
  0
LINE
  5
211
330
1F
100
AcDbEntity
  8
0
  6
Continuous
 62
     7
370
    25
100
AcDbLine
 10
229.7890282438
 20
123.5394254655
 30
0.0
 11
224.1890283852
 21
123.2394241125
 31
0.0
  0
LINE
  5
212
330
1F
100
AcDbEntity
  8
0
  6
Continuous
 62
     7
370
    25
100
AcDbLine
 10
224.1890283852
 20
122.839424792
 30
0.0
 11
229.7890282438
 21
122.5394253016
 31
0.0
  0
LINE
  5
213
330
1F
100
AcDbEntity
  8
0
  6
Continuous
 62
     7
370
    25
100
AcDbLine
 10
224.1890283852
 20
122.839424792
 30
0.0
 11
224.1890283852
 21
123.2394241125
 31
0.0
  0
LINE
  5
214
330
1F
100
AcDbEntity
  8
0
  6
Continuous
 62
     7
370
    25
100
AcDbLine
 10
229.7890282438
 20
125.5394239307
 30
0.0
 11
224.1890283852
 21
125.2394244403
 31
0.0
  0
LINE
  5
215
330
1F
100
AcDbEntity
  8
0
  6
Continuous
 62
     7
370
    25
100
AcDbLine
 10
224.1890283852
 20
124.8394251198
 30
0.0
 11
224.1890283852
 21
125.2394244403
 31
0.0
  0
LINE
  5
216
330
1F
100
AcDbEntity
  8
0
  6
Continuous
 62
     7
370
    25
100
AcDbLine
 10
224.1890283852
 20
124.8394251198
 30
0.0
 11
229.7890282438
 21
124.5394256294
 31
0.0
  0
LINE
  5
217
330
1F
100
AcDbEntity
  8
0
  6
Continuous
 62
     7
370
    25
100
AcDbLine
 10
224.1890283852
 20
126.8394245163
 30
0.0
 11
224.1890283852
 21
127.2394247681
 31
0.0
  0
LINE
  5
218
330
1F
100
AcDbEntity
  8
0
  6
Continuous
 62
     7
370
    25
100
AcDbLine
 10
229.7890282438
 20
127.5394251898
 30
0.0
 11
224.1890283852
 21
127.2394247681
 31
0.0
  0
LINE
  5
219
330
1F
100
AcDbEntity
  8
0
  6
Continuous
 62
     7
370
    25
100
AcDbLine
 10
224.1890283852
 20
126.8394245163
 30
0.0
 11
229.7890282438
 21
126.5394250259
 31
0.0
  0
LINE
  5
21A
330
1F
100
AcDbEntity
  8
0
  6
Continuous
 62
     7
370
    25
100
AcDbLine
 10
224.1890283852
 20
128.8394248441
 30
0.0
 11
229.7890282438
 21
128.5394244224
 31
0.0
  0
LINE
  5
21B
330
1F
100
AcDbEntity
  8
0
  6
Continuous
 62
     7
370
    25
100
AcDbLine
 10
224.1890283852
 20
128.8394248441
 30
0.0
 11
224.1890283852
 21
129.239425096
 31
0.0
  0
LINE
  5
21C
330
1F
100
AcDbEntity
  8
0
  6
Continuous
 62
     7
370
    25
100
AcDbLine
 10
229.7890282438
 20
129.5394245863
 30
0.0
 11
224.1890283852
 21
129.239425096
 31
0.0
  0
LINE
  5
21D
330
1F
100
AcDbEntity
  8
0
  6
Continuous
 62
     7
370
    25
100
AcDbLine
 10
224.1890283852
 20
130.8394251719
 30
0.0
 11
224.1890283852
 21
131.2394244925
 31
0.0
  0
LINE
  5
21E
330
1F
100
AcDbEntity
  8
0
  6
Continuous
 62
     7
370
    25
100
AcDbLine
 10
229.7890282438
 20
131.5394249142
 30
0.0
 11
224.1890283852
 21
131.2394244925
 31
0.0
  0
LINE
  5
21F
330
1F
100
AcDbEntity
  8
0
  6
Continuous
 62
     7
370
    25
100
AcDbLine
 10
224.1890283852
 20
130.8394251719
 30
0.0
 11
229.7890282438
 21
130.5394247502
 31
0.0
  0
LINE
  5
220
330
1F
100
AcDbEntity
  8
0
  6
Continuous
 62
     7
370
    25
100
AcDbLine
 10
224.1890283852
 20
132.8394245685
 30
0.0
 11
224.1890283852
 21
133.2394248203
 31
0.0
  0
LINE
  5
221
330
1F
100
AcDbEntity
  8
0
  6
Continuous
 62
     7
370
    25
100
AcDbLine
 10
224.1890283852
 20
132.8394245685
 30
0.0
 11
229.7890282438
 21
132.5394250781
 31
0.0
  0
LINE
  5
222
330
1F
100
AcDbEntity
  8
0
  6
Continuous
 62
     7
370
    25
100
AcDbLine
 10
229.7890282438
 20
133.539425242
 30
0.0
 11
224.1890283852
 21
133.2394248203
 31
0.0
  0
LINE
  5
223
330
1F
100
AcDbEntity
  8
0
  6
Continuous
 62
     7
370
    25
100
AcDbLine
 10
224.1890283852
 20
134.8394248963
 30
0.0
 11
224.1890283852
 21
135.2394246824
 31
0.0
  0
LINE
  5
224
330
1F
100
AcDbEntity
  8
0
  6
Continuous
 62
     7
370
    25
100
AcDbLine
 10
229.7890282438
 20
135.5394246385
 30
0.0
 11
224.1890283852
 21
135.2394246824
 31
0.0
  0
LINE
  5
225
330
1F
100
AcDbEntity
  8
0
  6
Continuous
 62
     7
370
    25
100
AcDbLine
 10
224.1890283852
 20
134.8394248963
 30
0.0
 11
229.7890282438
 21
134.5394249402
 31
0.0
  0
LINE
  5
226
330
1F
100
AcDbEntity
  8
0
  6
Continuous
 62
     7
370
    25
100
AcDbLine
 10
224.1890283852
 20
153.2394253046
 30
0.0
 11
224.1890283852
 21
152.8394250527
 31
0.0
  0
LINE
  5
227
330
1F
100
AcDbEntity
  8
0
  6
Continuous
 62
     7
370
    25
100
AcDbLine
 10
224.1890283852
 20
153.2394253046
 30
0.0
 11
229.7890282438
 21
153.5394247949
 31
0.0
  0
LINE
  5
228
330
1F
100
AcDbEntity
  8
0
  6
Continuous
 62
     7
370
    25
100
AcDbLine
 10
229.7890282438
 20
152.539424631
 30
0.0
 11
224.1890283852
 21
152.8394250527
 31
0.0
  0
LINE
  5
229
330
1F
100
AcDbEntity
  8
0
  6
Continuous
 62
     7
370
    25
100
AcDbLine
 10
224.1890283852
 20
154.8394244492
 30
0.0
 11
224.1890283852
 21
155.2394247011
 31
0.0
  0
LINE
  5
22A
330
1F
100
AcDbEntity
  8
0
  6
Continuous
 62
     7
370
    25
100
AcDbLine
 10
224.1890283852
 20
155.2394247011
 30
0.0
 11
229.7890282438
 21
155.5394251228
 31
0.0
  0
LINE
  5
22B
330
1F
100
AcDbEntity
  8
0
  6
Continuous
 62
     7
370
    25
100
AcDbLine
 10
229.7890282438
 20
154.5394249589
 30
0.0
 11
224.1890283852
 21
154.8394244492
 31
0.0
  0
LINE
  5
22C
330
1F
100
AcDbEntity
  8
0
  6
Continuous
 62
     7
370
    25
100
AcDbLine
 10
224.1890283852
 20
149.2394246489
 30
0.0
 11
224.1890283852
 21
148.8394248627
 31
0.0
  0
LINE
  5
22D
330
1F
100
AcDbEntity
  8
0
  6
Continuous
 62
     7
370
    25
100
AcDbLine
 10
229.7890282438
 20
148.5394249067
 30
0.0
 11
224.1890283852
 21
148.8394248627
 31
0.0
  0
LINE
  5
22E
330
1F
100
AcDbEntity
  8
0
  6
Continuous
 62
     7
370
    25
100
AcDbLine
 10
224.1890283852
 20
149.2394246489
 30
0.0
 11
229.7890282438
 21
149.5394250706
 31
0.0
  0
LINE
  5
22F
330
1F
100
AcDbEntity
  8
0
  6
Continuous
 62
     7
370
    25
100
AcDbLine
 10
224.1890283852
 20
151.2394249767
 30
0.0
 11
224.1890283852
 21
150.8394247249
 31
0.0
  0
LINE
  5
230
330
1F
100
AcDbEntity
  8
0
  6
Continuous
 62
     7
370
    25
100
AcDbLine
 10
229.7890282438
 20
150.5394252345
 30
0.0
 11
224.1890283852
 21
150.8394247249
 31
0.0
  0
LINE
  5
231
330
1F
100
AcDbEntity
  8
0
  6
Continuous
 62
     7
370
    25
100
AcDbLine
 10
224.1890283852
 20
151.2394249767
 30
0.0
 11
229.7890282438
 21
151.5394244671
 31
0.0
  0
LINE
  5
232
330
1F
100
AcDbEntity
  8
0
  6
Continuous
 62
     7
370
    25
100
AcDbLine
 10
224.1890283852
 20
147.2394247868
 30
0.0
 11
224.1890283852
 21
146.8394250006
 31
0.0
  0
LINE
  5
233
330
1F
100
AcDbEntity
  8
0
  6
Continuous
 62
     7
370
    25
100
AcDbLine
 10
224.1890283852
 20
147.2394247868
 30
0.0
 11
229.7890282438
 21
147.5394247428
 31
0.0
  0
LINE
  5
234
330
1F
100
AcDbEntity
  8
0
  6
Continuous
 62
     7
370
    25
100
AcDbLine
 10
229.7890282438
 20
146.5394250445
 30
0.0
 11
224.1890283852
 21
146.8394250006
 31
0.0
  0
LINE
  5
235
330
1F
100
AcDbEntity
  8
0
  6
Continuous
 62
     7
370
    25
100
AcDbLine
 10
227.7890283816
 20
136.5394248024
 30
0.0
 11
227.7890283816
 21
139.5394248285
 31
0.0
  0
LINE
  5
236
330
1F
100
AcDbEntity
  8
0
  6
Continuous
 62
     7
370
    25
100
AcDbLine
 10
227.7890283816
 20
136.5394248024
 30
0.0
 11
229.7890282438
 21
136.5394248024
 31
0.0
  0
LINE
  5
237
330
1F
100
AcDbEntity
  8
0
  6
Continuous
 62
     7
370
    25
100
AcDbLine
 10
227.7890283816
 20
139.5394248285
 30
0.0
 11
229.7890282438
 21
139.5394248285
 31
0.0
  0
LINE
  5
238
330
1F
100
AcDbEntity
  8
0
  6
Continuous
 62
     7
370
    25
100
AcDbLine
 10
224.1890283852
 20
145.2394249246
 30
0.0
 11
224.1890283852
 21
144.8394249056
 31
0.0
  0
LINE
  5
239
330
1F
100
AcDbEntity
  8
0
  6
Continuous
 62
     7
370
    25
100
AcDbLine
 10
229.7890282438
 20
144.5394249495
 30
0.0
 11
224.1890283852
 21
144.8394249056
 31
0.0
  0
LINE
  5
23A
330
1F
100
AcDbEntity
  8
0
  6
Continuous
 62
     7
370
    25
100
AcDbLine
 10
224.1890283852
 20
145.2394249246
 30
0.0
 11
229.7890282438
 21
145.5394248806
 31
0.0
  0
LINE
  5
23B
330
1F
100
AcDbEntity
  8
0
  6
Continuous
 62
     7
370
    25
100
AcDbLine
 10
224.1890283852
 20
141.239424851
 30
0.0
 11
224.1890283852
 21
140.839424832
 31
0.0
  0
LINE
  5
23C
330
1F
100
AcDbEntity
  8
0
  6
Continuous
 62
     7
370
    25
100
AcDbLine
 10
229.7890282438
 20
140.539424876
 30
0.0
 11
224.1890283852
 21
140.839424832
 31
0.0
  0
LINE
  5
23D
330
1F
100
AcDbEntity
  8
0
  6
Continuous
 62
     7
370
    25
100
AcDbLine
 10
224.1890283852
 20
141.239424851
 30
0.0
 11
229.7890282438
 21
141.5394248434
 31
0.0
  0
LINE
  5
23E
330
1F
100
AcDbEntity
  8
0
  6
Continuous
 62
     7
370
    25
100
AcDbLine
 10
224.1890283852
 20
143.2394248296
 30
0.0
 11
224.1890283852
 21
142.8394248106
 31
0.0
  0
LINE
  5
23F
330
1F
100
AcDbEntity
  8
0
  6
Continuous
 62
     7
370
    25
100
AcDbLine
 10
224.1890283852
 20
143.2394248296
 30
0.0
 11
229.7890282438
 21
143.5394247856
 31
0.0
  0
LINE
  5
240
330
1F
100
AcDbEntity
  8
0
  6
Continuous
 62
     7
370
    25
100
AcDbLine
 10
229.7890282438
 20
142.5394248546
 30
0.0
 11
224.1890283852
 21
142.8394248106
 31
0.0
  0
LINE
  5
241
330
1F
100
AcDbEntity
  8
0
  6
Continuous
 62
     7
370
    25
100
AcDbLine
 10
229.7890282438
 20
157.1874134571
 30
0.0
 11
231.0890283637
 21
157.1874134571
 31
0.0
  0
LINE
  5
242
330
1F
100
AcDbEntity
  8
0
  6
Continuous
 62
     7
370
    25
100
AcDbLine
 10
231.0890283637
 20
157.1874134571
 30
0.0
 11
231.0890283637
 21
156.1874132932
 31
0.0
  0
LINE
  5
243
330
1F
100
AcDbEntity
  8
0
  6
Continuous
 62
     7
370
    25
100
AcDbLine
 10
229.7890282438
 20
156.1874132932
 30
0.0
 11
229.7890282438
 21
157.1874134571
 31
0.0
  0
LINE
  5
244
330
1F
100
AcDbEntity
  8
0
  6
Continuous
 62
     7
370
    25
100
AcDbLine
 10
233.0890282259
 20
161.1874141127
 30
0.0
 11
233.0890282259
 21
162.9373636425
 31
0.0
  0
LINE
  5
245
330
1F
100
AcDbEntity
  8
0
  6
Continuous
 62
     7
370
    25
100
AcDbLine
 10
231.0890283637
 20
161.1874141127
 30
0.0
 11
233.0890282259
 21
161.1874141127
 31
0.0
  0
LINE
  5
246
330
1F
100
AcDbEntity
  8
0
  6
Continuous
 62
     7
370
    25
100
AcDbLine
 10
229.7890282438
 20
161.1874141127
 30
0.0
 11
231.0890283637
 21
161.1874141127
 31
0.0
  0
LINE
  5
247
330
1F
100
AcDbEntity
  8
0
  6
Continuous
 62
     7
370
    25
100
AcDbLine
 10
229.7890282438
 20
161.1874141127
 30
0.0
 11
229.7890282438
 21
162.9373636425
 31
0.0
  0
LINE
  5
248
330
1F
100
AcDbEntity
  8
0
  6
Continuous
 62
     7
370
    25
100
AcDbLine
 10
233.0890282259
 20
159.4374627203
 30
0.0
 11
233.0890282259
 21
161.1874141127
 31
0.0
  0
LINE
  5
249
330
1F
100
AcDbEntity
  8
0
  6
Continuous
 62
     7
370
    25
100
AcDbLine
 10
231.0890283637
 20
161.1874141127
 30
0.0
 11
231.0890283637
 21
157.1874134571
 31
0.0
  0
LINE
  5
24A
330
1F
100
AcDbEntity
  8
0
  6
Continuous
 62
     7
370
    25
100
AcDbLine
 10
229.7890282438
 20
157.1874134571
 30
0.0
 11
229.7890282438
 21
161.1874141127
 31
0.0
  0
LINE
  5
24B
330
1F
100
AcDbEntity
  8
0
  6
Continuous
 62
     7
370
    25
100
AcDbLine
 10
233.0890282259
 20
158.3374142975
 30
0.0
 11
233.0890282259
 21
159.4374627203
 31
0.0
  0
LINE
  5
24C
330
1F
100
AcDbEntity
  8
0
  6
Continuous
 62
     7
370
    25
100
AcDbLine
 10
233.0890282259
 20
158.3374142975
 30
0.0
 11
231.0890283637
 21
158.3374142975
 31
0.0
  0
LINE
  5
24D
330
1F
100
AcDbEntity
  8
0
  6
Continuous
 62
     7
370
    25
100
AcDbLine
 10
233.0890282259
 20
117.8651750416
 30
0.0
 11
233.0890282259
 21
117.864076081
 31
0.0
  0
LINE
  5
24E
330
1F
100
AcDbEntity
  8
0
  6
Continuous
 62
     7
370
    25
100
AcDbLine
 10
231.0890283637
 20
113.8641760081
 30
0.0
 11
231.0890283637
 21
113.8630751849
 31
0.0
  0
LINE
  5
24F
330
1F
100
AcDbEntity
  8
0
  6
Continuous
 62
     7
370
    25
100
AcDbLine
 10
233.0890282259
 20
113.8641760081
 30
0.0
 11
233.0890282259
 21
113.8630751849
 31
0.0
  0
DIMENSION
  5
250
330
1F
100
AcDbEntity
  8
0
  6
Continuous
 62
     7
370
    18
100
AcDbDimension
  2
_D_6
 10
231.0890283615
 20
104.2679245546
 30
0.0
 11
244.0886135626
 21
104.2679245546
 31
0.0
 70
   160
  1
<>
 71
     2
 42
-1.0
  3
SLDDIMSTYLE4
100
AcDbAlignedDimension
 13
233.0890283615
 23
113.864175357
 33
0.0
 14
231.0890283615
 24
116.6133198135
 34
0.0
100
AcDbRotatedDimension
  0
DIMENSION
  5
25D
330
1F
100
AcDbEntity
  8
0
  6
Continuous
 62
     7
370
    18
100
AcDbDimension
  2
_D_7
 10
229.7890283615
 20
95.4060829541
 30
0.0
 11
244.0886135626
 21
95.4060829541
 31
0.0
 70
   160
  1
<>
 71
     2
 42
-1.0
  3
SLDDIMSTYLE4
100
AcDbAlignedDimension
 13
233.0890283615
 23
113.864175357
 33
0.0
 14
229.7890283615
 24
113.864175357
 34
0.0
100
AcDbRotatedDimension
  0
DIMENSION
  5
269
330
1F
100
AcDbEntity
  8
0
  6
Continuous
 62
     7
370
    18
100
AcDbDimension
  2
_D_8
 10
229.7890283615
 20
170.3561076472
 30
0.0
 11
243.0890283615
 21
170.3561076472
 31
0.0
 70
   160
  1
<>
 71
     2
 42
-1.0
  3
SLDDIMSTYLE4
100
AcDbAlignedDimension
 13
231.0890283615
 23
161.1874134276
 33
0.0
 14
229.7890283615
 24
162.9373634276
 34
0.0
100
AcDbRotatedDimension
  0
DIMENSION
  5
275
330
1F
100
AcDbEntity
  8
0
  6
Continuous
 62
     7
370
    18
100
AcDbDimension
  2
_D_9
 10
229.7890283615
 20
138.0138769041
 30
0.0
 11
214.7727596155
 21
138.0138769041
 31
0.0
 70
   160
  1
<>
 71
     2
 42
-1.0
  3
SLDDIMSTYLE4
100
AcDbAlignedDimension
 13
227.7890283615
 23
136.5394248427
 33
0.0
 14
229.7890283615
 24
113.864175357
 34
0.0
 50
0.0
100
AcDbRotatedDimension
  0
DIMENSION
  5
27F
330
1F
100
AcDbEntity
  8
0
  6
Continuous
 62
     7
370
    18
100
AcDbDimension
  2
_D_10
 10
224.1890283615
 20
155.0251727911
 30
0.0
 11
214.7727596155
 21
155.0251727911
 31
0.0
 70
   160
  1
<>
 71
     2
 42
-1.0
  3
SLDDIMSTYLE4
100
AcDbAlignedDimension
 13
229.7890283615
 23
162.9373634276
 33
0.0
 14
224.1890283615
 24
154.8394248427
 34
0.0
 50
0.0
100
AcDbRotatedDimension
  0
ARC
  5
28A
330
1F
100
AcDbEntity
  8
0
  6
Continuous
 62
     7
370
    25
100
AcDbCircle
 10
185.5795326893
 20
16.6768072435
 30
0.0
 40
0.8500000000000227
100
AcDbArc
 50
0.0
 51
180.0
  0
ARC
  5
28B
330
1F
100
AcDbEntity
  8
0
  6
Continuous
 62
     7
370
    25
100
AcDbCircle
 10
185.5795326893
 20
16.6768072435
 30
0.0
 40
0.8500000000000227
100
AcDbArc
 50
180.0
 51
0.0
  0
ARC
  5
28C
330
1F
100
AcDbEntity
  8
0
  6
Continuous
 62
     7
370
    25
100
AcDbCircle
 10
185.5795326893
 20
16.6768072435
 30
0.0
 40
2.001049999995018
100
AcDbArc
 50
180.0
 51
0.0
  0
ARC
  5
28D
330
1F
100
AcDbEntity
  8
0
  6
Continuous
 62
     7
370
    25
100
AcDbCircle
 10
185.5795326893
 20
16.6768072435
 30
0.0
 40
2.001049999995018
100
AcDbArc
 50
0.0
 51
180.0
  0
ARC
  5
28E
330
1F
100
AcDbEntity
  8
0
  6
Continuous
 62
     7
370
    25
100
AcDbCircle
 10
108.5795326893
 20
16.6768072432
 30
0.0
 40
0.8500000000000085
100
AcDbArc
 50
0.0
 51
180.0
  0
ARC
  5
28F
330
1F
100
AcDbEntity
  8
0
  6
Continuous
 62
     7
370
    25
100
AcDbCircle
 10
108.5795326893
 20
16.6768072432
 30
0.0
 40
1.999949999998364
100
AcDbArc
 50
180.0
 51
0.0
  0
ARC
  5
290
330
1F
100
AcDbEntity
  8
0
  6
Continuous
 62
     7
370
    25
100
AcDbCircle
 10
108.5795326893
 20
16.6768072432
 30
0.0
 40
0.8500000000000085
100
AcDbArc
 50
180.0
 51
0.0
  0
ARC
  5
291
330
1F
100
AcDbEntity
  8
0
  6
Continuous
 62
     7
370
    25
100
AcDbCircle
 10
108.5795326893
 20
16.6768072432
 30
0.0
 40
1.999949999998364
100
AcDbArc
 50
0.0
 51
180.0
  0
LINE
  5
292
330
1F
100
AcDbEntity
  8
0
  6
Continuous
 62
     7
370
    25
100
AcDbLine
 10
173.3282833778
 20
59.1500961837
 30
0.0
 11
169.8283824556
 21
59.1500961837
 31
0.0
  0
LINE
  5
293
330
1F
100
AcDbEntity
  8
0
  6
Continuous
 62
     7
370
    25
100
AcDbLine
 10
169.8283824556
 20
59.1500961837
 30
0.0
 11
169.8283824556
 21
60.9500949887
 31
0.0
  0
LINE
  5
294
330
1F
100
AcDbEntity
  8
0
  6
Continuous
 62
     7
370
    25
100
AcDbLine
 10
169.8283824556
 20
60.9500949887
 30
0.0
 11
173.3282833778
 21
60.9500949887
 31
0.0
  0
LINE
  5
295
330
1F
100
AcDbEntity
  8
0
  6
Continuous
 62
     7
370
    25
100
AcDbLine
 10
173.3282833778
 20
60.9500949887
 30
0.0
 11
173.3282833778
 21
59.1500961837
 31
0.0
  0
ARC
  5
296
330
1F
100
AcDbEntity
  8
0
  6
Continuous
 62
     7
370
    25
100
AcDbCircle
 10
122.5796326914
 20
62.0000953138
 30
0.0
 40
1.749949999999998
100
AcDbArc
 50
180.0
 51
0.0
  0
ARC
  5
297
330
1F
100
AcDbEntity
  8
0
  6
Continuous
 62
     7
370
    25
100
AcDbCircle
 10
122.5796326914
 20
62.0000953138
 30
0.0
 40
0.8500000000000085
100
AcDbArc
 50
180.0
 51
0.0
  0
ARC
  5
298
330
1F
100
AcDbEntity
  8
0
  6
Continuous
 62
     7
370
    25
100
AcDbCircle
 10
122.5796326914
 20
62.0000953138
 30
0.0
 40
1.749949999999998
100
AcDbArc
 50
0.0
 51
180.0
  0
ARC
  5
299
330
1F
100
AcDbEntity
  8
0
  6
Continuous
 62
     7
370
    25
100
AcDbCircle
 10
122.5796326914
 20
62.0000953138
 30
0.0
 40
0.8500000000000085
100
AcDbArc
 50
0.0
 51
180.0
  0
ARC
  5
29A
330
1F
100
AcDbEntity
  8
0
  6
Continuous
 62
     7
370
    25
100
AcDbCircle
 10
171.5783326872
 20
62.0000953138
 30
0.0
 40
1.749950000000013
100
AcDbArc
 50
0.0
 51
180.0
  0
ARC
  5
29B
330
1F
100
AcDbEntity
  8
0
  6
Continuous
 62
     7
370
    25
100
AcDbCircle
 10
171.5795326914
 20
62.0000953138
 30
0.0
 40
0.8500000000000227
100
AcDbArc
 50
0.0
 51
180.0
  0
ARC
  5
29C
330
1F
100
AcDbEntity
  8
0
  6
Continuous
 62
     7
370
    25
100
AcDbCircle
 10
171.5795326914
 20
62.0000953138
 30
0.0
 40
0.8500000000000227
100
AcDbArc
 50
180.0
 51
0.0
  0
LINE
  5
29D
330
1F
100
AcDbEntity
  8
0
  6
Continuous
 62
     7
370
    25
100
AcDbLine
 10
169.8283824556
 20
62.0000959989
 30
0.0
 11
169.8283824556
 21
60.9500949887
 31
0.0
  0
LINE
  5
29E
330
1F
100
AcDbEntity
  8
0
  6
Continuous
 62
     7
370
    25
100
AcDbLine
 10
173.3282833778
 20
60.9500949887
 30
0.0
 11
173.3282833778
 21
62.0000959989
 31
0.0
  0
ARC
  5
29F
330
1F
100
AcDbEntity
  8
0
  6
Continuous
 62
     7
370
    25
100
AcDbCircle
 10
178.9789826893
 20
38.8521067289
 30
0.0
 40
0.8499999999999943
100
AcDbArc
 50
0.0
 51
180.0
  0
ARC
  5
2A0
330
1F
100
AcDbEntity
  8
0
  6
Continuous
 62
     7
370
    25
100
AcDbCircle
 10
113.3754502467
 20
19.2041181441
 30
0.0
 40
1.500000000001863
100
AcDbArc
 50
90.0
 51
158.0000000005
  0
LINE
  5
2A1
330
1F
100
AcDbEntity
  8
0
  6
Continuous
 62
     7
370
    25
100
AcDbLine
 10
110.4338533663
 20
15.9276129362
 30
0.0
 11
111.9846730911
 21
19.7660272625
 31
0.0
  0
LINE
  5
2A2
330
1F
100
AcDbEntity
  8
0
  6
Continuous
 62
     7
370
    25
100
AcDbLine
 10
109.970360198
 20
25.4580231068
 30
0.0
 11
106.7252113902
 21
17.4260010627
 31
0.0
  0
ARC
  5
2A3
330
1F
100
AcDbEntity
  8
0
  6
Continuous
 62
     7
370
    25
100
AcDbCircle
 10
108.5795826893
 20
26.0199325932
 30
0.0
 40
1.5
100
AcDbArc
 50
338.0000000005
 51
0.0
  0
LINE
  5
2A4
330
1F
100
AcDbEntity
  8
0
  6
Continuous
 62
     7
370
    25
100
AcDbLine
 10
110.0795819842
 20
56.0000950155
 30
0.0
 11
110.0795819842
 21
26.0199328569
 31
0.0
  0
LINE
  5
2A5
330
1F
100
AcDbEntity
  8
0
  6
Continuous
 62
     7
370
    25
100
AcDbLine
 10
152.3383824573
 20
57.0000951794
 30
0.0
 11
125.3295830869
 21
57.0000951794
 31
0.0
  0
LINE
  5
2A6
330
1F
100
AcDbEntity
  8
0
  6
Continuous
 62
     7
370
    25
100
AcDbLine
 10
170.5983831965
 20
45.8437368889
 30
0.0
 11
152.6783827179
 21
45.8437368889
 31
0.0
  0
LINE
  5
2A7
330
1F
100
AcDbEntity
  8
0
  6
Continuous
 62
     7
370
    25
100
AcDbLine
 10
170.9383829915
 20
57.2037372422
 30
0.0
 11
170.9383829915
 21
46.1837369167
 31
0.0
  0
ARC
  5
2A8
330
1F
100
AcDbEntity
  8
0
  6
Continuous
 62
     7
370
    25
100
AcDbCircle
 10
168.8283826872
 20
58.0000953138
 30
0.0
 40
1.0
100
AcDbArc
 50
357.6928741043
 51
0.0
  0
ARC
  5
2A9
330
1F
100
AcDbEntity
  8
0
  6
Continuous
 62
     7
370
    25
100
AcDbCircle
 10
174.3282826872
 20
58.0000953138
 30
0.0
 40
1.0
100
AcDbArc
 50
180.0
 51
270.0
  0
ARC
  5
2AA
330
1F
100
AcDbEntity
  8
0
  6
Continuous
 62
     7
370
    25
100
AcDbCircle
 10
184.0783826893
 20
26.2764833457
 30
0.0
 40
1.000000000000003
100
AcDbArc
 50
180.0
 51
241.3803351759
  0
ARC
  5
2AB
330
1F
100
AcDbEntity
  8
0
  6
Continuous
 62
     7
370
    25
100
AcDbCircle
 10
180.7825151319
 20
19.2041181441
 30
0.0
 40
1.5
100
AcDbArc
 50
22.0000000005
 51
90.0
  0
LINE
  5
2AC
330
1F
100
AcDbEntity
  8
0
  6
Continuous
 62
     7
370
    25
100
AcDbLine
 10
182.1732922875
 20
19.7660272625
 30
0.0
 11
183.7175592267
 21
15.9438309875
 31
0.0
  0
ARC
  5
2AD
330
1F
100
AcDbEntity
  8
0
  6
Continuous
 62
     7
370
    25
100
AcDbCircle
 10
182.0783826893
 20
56.0000953138
 30
0.0
 40
1.0
100
AcDbArc
 50
0.0
 51
90.0
  0
LINE
  5
2AE
330
1F
100
AcDbEntity
  8
0
  6
Continuous
 62
     7
370
    25
100
AcDbLine
 10
182.0783830666
 20
57.0000951794
 30
0.0
 11
174.3282835417
 21
57.0000951794
 31
0.0
  0
LINE
  5
2AF
330
1F
100
AcDbEntity
  8
0
  6
Continuous
 62
     7
370
    25
100
AcDbLine
 10
152.3383824573
 20
46.1837369167
 30
0.0
 11
152.3383824573
 21
57.0000951794
 31
0.0
  0
ARC
  5
2B0
330
1F
100
AcDbEntity
  8
0
  6
Continuous
 62
     7
370
    25
100
AcDbCircle
 10
182.4019066031
 20
23.2041181441
 30
0.0
 40
2.500000000000564
100
AcDbArc
 50
22.0000000002
 51
61.3803351758
  0
ARC
  5
2B1
330
1F
100
AcDbEntity
  8
0
  6
Continuous
 62
     7
370
    25
100
AcDbCircle
 10
170.2272478419
 20
57.9437368265
 30
0.0
 40
0.3999999999999986
100
AcDbArc
 50
177.6928741041
 51
270.0
  0
LINE
  5
2B2
330
1F
100
AcDbEntity
  8
0
  6
Continuous
 62
     7
370
    25
100
AcDbLine
 10
170.2272474252
 20
57.5437370372
 30
0.0
 11
170.5983831965
 21
57.5437370372
 31
0.0
  0
ARC
  5
2B3
330
1F
100
AcDbEntity
  8
0
  6
Continuous
 62
     7
370
    25
100
AcDbCircle
 10
170.5983826893
 20
57.2037368265
 30
0.0
 40
0.3400000000000034
100
AcDbArc
 50
0.0
 51
90.0
  0
LINE
  5
2B4
330
1F
100
AcDbEntity
  8
0
  6
Continuous
 62
     7
370
    25
100
AcDbLine
 10
113.3754506194
 20
20.7041186896
 30
0.0
 11
180.7825147592
 21
20.7041186896
 31
0.0
  0
ARC
  5
2B5
330
1F
100
AcDbEntity
  8
0
  6
Continuous
 62
     7
370
    25
100
AcDbCircle
 10
170.5983826893
 20
46.1837368265
 30
0.0
 40
0.3400000000000034
100
AcDbArc
 50
270.0
 51
0.0
  0
LINE
  5
2B6
330
1F
100
AcDbEntity
  8
0
  6
Continuous
 62
     7
370
    25
100
AcDbLine
 10
119.8296818369
 20
57.0000951794
 30
0.0
 11
111.0795840108
 21
57.0000951794
 31
0.0
  0
ARC
  5
2B7
330
1F
100
AcDbEntity
  8
0
  6
Continuous
 62
     7
370
    25
100
AcDbCircle
 10
152.6783826893
 20
46.1837368265
 30
0.0
 40
0.3400000000000034
100
AcDbArc
 50
180.0
 51
270.0
  0
LINE
  5
2B8
330
1F
100
AcDbEntity
  8
0
  6
Continuous
 62
     7
370
    25
100
AcDbLine
 10
187.3984142625
 20
17.5109991488
 30
0.0
 11
184.7198672079
 21
24.1406337974
 31
0.0
  0
LINE
  5
2B9
330
1F
100
AcDbEntity
  8
0
  6
Continuous
 62
     7
370
    25
100
AcDbLine
 10
120.8296820008
 20
62.0000959989
 30
0.0
 11
120.8296820008
 21
58.0000953433
 31
0.0
  0
ARC
  5
2BA
330
1F
100
AcDbEntity
  8
0
  6
Continuous
 62
     7
370
    25
100
AcDbCircle
 10
125.3295826914
 20
58.0000953138
 30
0.0
 40
1.0
100
AcDbArc
 50
180.0
 51
270.0
  0
LINE
  5
2BB
330
1F
100
AcDbEntity
  8
0
  6
Continuous
 62
     7
370
    25
100
AcDbLine
 10
124.329582923
 20
58.0000953433
 30
0.0
 11
124.329582923
 21
62.0000959989
 31
0.0
  0
ARC
  5
2BC
330
1F
100
AcDbEntity
  8
0
  6
Continuous
 62
     7
370
    25
100
AcDbCircle
 10
114.1789826893
 20
38.8521067289
 30
0.0
 40
0.8500000000000085
100
AcDbArc
 50
0.0
 51
180.0
  0
ARC
  5
2BD
330
1F
100
AcDbEntity
  8
0
  6
Continuous
 62
     7
370
    25
100
AcDbCircle
 10
114.1789826893
 20
38.8521067289
 30
0.0
 40
0.8500000000000085
100
AcDbArc
 50
180.0
 51
0.0
  0
ARC
  5
2BE
330
1F
100
AcDbEntity
  8
0
  6
Continuous
 62
     7
370
    25
100
AcDbCircle
 10
119.8296826914
 20
58.0000953138
 30
0.0
 40
1.0
100
AcDbArc
 50
270.0
 51
0.0
  0
ARC
  5
2BF
330
1F
100
AcDbEntity
  8
0
  6
Continuous
 62
     7
370
    25
100
AcDbCircle
 10
111.0795826893
 20
56.0000953138
 30
0.0
 40
1.0
100
AcDbArc
 50
90.0
 51
180.0
  0
ARC
  5
2C0
330
1F
100
AcDbEntity
  8
0
  6
Continuous
 62
     7
370
    25
100
AcDbCircle
 10
178.9789826893
 20
38.8521067289
 30
0.0
 40
0.8499999999999943
100
AcDbArc
 50
180.0
 51
0.0
  0
LINE
  5
2C1
330
1F
100
AcDbEntity
  8
0
  6
Continuous
 62
     7
370
    25
100
AcDbLine
 10
183.0783813679
 20
26.2764824238
 30
0.0
 11
183.0783813679
 21
56.0000950155
 31
0.0
  0
LINE
  5
2C2
330
1F
100
AcDbEntity
  8
0
  6
Continuous
 62
     7
370
    25
100
AcDbLine
 10
169.8283824556
 20
59.1500961837
 30
0.0
 11
169.8283824556
 21
58.0000953433
 31
0.0
  0
LINE
  5
2C3
330
1F
100
AcDbEntity
  8
0
  6
Continuous
 62
     7
370
    25
100
AcDbLine
 10
173.3282833778
 20
58.0000953433
 30
0.0
 11
173.3282833778
 21
59.1500961837
 31
0.0
  0
ARC
  5
2C4
330
1F
100
AcDbEntity
  8
0
  6
Continuous
 62
     7
370
    25
100
AcDbCircle
 10
168.8283826872
 20
58.0000953138
 30
0.0
 40
1.0
100
AcDbArc
 50
270.0
 51
357.6928741043
  0
LINE
  5
2C5
330
1F
100
AcDbEntity
  8
0
  6
Continuous
 62
     7
370
    25
100
AcDbLine
 10
152.3383824573
 20
57.0000951794
 30
0.0
 11
168.8283822917
 21
57.0000951794
 31
0.0
  0
DIMENSION
  5
2C6
330
1F
100
AcDbEntity
  8
0
  6
Continuous
 62
     7
370
    18
100
AcDbDimension
  2
_D_11
 10
148.5616765377
 20
57.0000953138
 30
0.0
 11
148.5616765377
 21
51.1231557566
 31
0.0
 70
   160
  1
<>
 71
     2
 42
-1.0
  3
SLDDIMSTYLE1
100
AcDbAlignedDimension
 13
152.6783826893
 23
45.8437368265
 33
0.0
 14
168.8283826872
 24
57.0000953138
 34
0.0
 50
90.0
100
AcDbRotatedDimension
  0
DIMENSION
  5
2D1
330
1F
100
AcDbEntity
  8
0
  6
Continuous
 62
     7
370
    18
100
AcDbDimension
  2
_D_12
 10
152.3383826893
 20
35.0802183755
 30
0.0
 11
161.3875281484
 21
35.0802183755
 31
0.0
 70
   160
  1
<>
 71
     2
 42
-1.0
  3
SLDDIMSTYLE2
100
AcDbAlignedDimension
 13
170.9383826893
 23
46.1837368265
 33
0.0
 14
152.3383826893
 24
46.1837368265
 34
0.0
100
AcDbRotatedDimension
  0
DIMENSION
  5
2DD
330
1F
100
AcDbEntity
  8
0
  6
Continuous
 62
     7
370
    18
100
AcDbDimension
  2
_D_13
 10
113.5174687425
 20
38.3115391477
 30
0.0
 11
105.2901447155
 21
30.0842151207
 31
0.0
 70
   160
  1
%%c<>
 71
     2
 42
-1.0
  3
SLDDIMSTYLE2
100
AcDbAlignedDimension
 13
114.7800234533
 23
39.4531474929
 33
0.0
 14
113.5779419253
 24
38.2510659649
 34
0.0
 50
45.0
100
AcDbRotatedDimension
  0
INSERT
  5
2EF
330
1F
100
AcDbEntity
  8
0
  6
Continuous
 62
     7
370
     0
100
AcDbBlockReference
  2
SW_NOTE_0
 10
184.5415512465
 20
51.4681440443
 30
0.0
  0
LEADER
  5
2F9
330
1F
100
AcDbEntity
  8
0
  6
Continuous
 62
     7
370
     0
100
AcDbLeader
  3
SLDDIMSTYLE5
 76
     2
 10
161.8295064564
 20
51.3690821692
 30
0.0
 10
184.5415512465
 20
51.4681440443
 30
0.0
  0
INSERT
  5
305
330
1F
100
AcDbEntity
  8
0
  6
Continuous
 62
     7
370
     0
100
AcDbBlockReference
  2
SW_CENTERMARKSYMBOL_6
 10
122.5796326914
 20
62.0000953138
 30
0.0
  0
INSERT
  5
311
330
1F
100
AcDbEntity
  8
0
  6
Continuous
 62
     7
370
     0
100
AcDbBlockReference
  2
SW_CENTERMARKSYMBOL_7
 10
114.1789826893
 20
38.8521067289
 30
0.0
  0
INSERT
  5
31D
330
1F
100
AcDbEntity
  8
0
  6
Continuous
 62
     7
370
     0
100
AcDbBlockReference
  2
SW_CENTERMARKSYMBOL_8
 10
108.5795326893
 20
16.6768072432
 30
0.0
  0
INSERT
  5
329
330
1F
100
AcDbEntity
  8
0
  6
Continuous
 62
     7
370
     0
100
AcDbBlockReference
  2
SW_CENTERMARKSYMBOL_9
 10
185.5795326893
 20
16.6768072435
 30
0.0
  0
INSERT
  5
335
330
1F
100
AcDbEntity
  8
0
  6
Continuous
 62
     7
370
     0
100
AcDbBlockReference
  2
SW_CENTERMARKSYMBOL_10
 10
178.9789826893
 20
38.8521067289
 30
0.0
  0
INSERT
  5
341
330
1F
100
AcDbEntity
  8
0
  6
Continuous
 62
     7
370
     0
100
AcDbBlockReference
  2
SW_CENTERMARKSYMBOL_11
 10
171.5795326914
 20
62.0000953138
 30
0.0
  0
LINE
  5
342
330
1F
100
AcDbEntity
  8
0
  6
Continuous
 62
     7
370
    25
100
AcDbLine
 10
64.1780362181
 20
117.8651750416
 30
0.0
 11
62.178036356
 21
117.8651750416
 31
0.0
  0
LINE
  5
343
330
1F
100
AcDbEntity
  8
0
  6
Continuous
 62
     7
370
    25
100
AcDbLine
 10
62.178036356
 20
113.8630751849
 30
0.0
 11
64.1780362181
 21
113.8630751849
 31
0.0
  0
LINE
  5
344
330
1F
100
AcDbEntity
  8
0
  6
Continuous
 62
     7
370
    25
100
AcDbLine
 10
64.1780362181
 20
113.8641760081
 30
0.0
 11
65.4780363381
 21
113.8641760081
 31
0.0
  0
LINE
  5
345
330
1F
100
AcDbEntity
  8
0
  6
Continuous
 62
     7
370
    25
100
AcDbLine
 10
65.4780363381
 20
162.9373636425
 30
0.0
 11
63.3780361801
 21
162.9373636425
 31
0.0
  0
LINE
  5
346
330
1F
100
AcDbEntity
  8
0
  6
Continuous
 62
     7
370
    25
100
AcDbLine
 10
63.3780361801
 20
162.9373636425
 30
0.0
 11
62.178036356
 21
162.9373636425
 31
0.0
  0
LINE
  5
347
330
1F
100
AcDbEntity
  8
0
  6
Continuous
 62
     7
370
    25
100
AcDbLine
 10
64.1780362181
 20
115.8641260445
 30
0.0
 11
64.1780362181
 21
116.6983172626
 31
0.0
  0
LINE
  5
348
330
1F
100
AcDbEntity
  8
0
  6
Continuous
 62
     7
370
    25
100
AcDbLine
 10
64.1780362181
 20
115.8641260445
 30
0.0
 11
62.178036356
 21
115.8641260445
 31
0.0
  0
LINE
  5
349
330
1F
100
AcDbEntity
  8
0
  6
Continuous
 62
     7
370
    25
100
AcDbLine
 10
62.178036356
 20
115.8641260445
 30
0.0
 11
62.178036356
 21
117.8651750416
 31
0.0
  0
LINE
  5
34A
330
1F
100
AcDbEntity
  8
0
  6
Continuous
 62
     7
370
    25
100
AcDbLine
 10
62.178036356
 20
113.8630751849
 30
0.0
 11
62.178036356
 21
115.8641260445
 31
0.0
  0
LINE
  5
34B
330
1F
100
AcDbEntity
  8
0
  6
Continuous
 62
     7
370
    25
100
AcDbLine
 10
64.1780362181
 20
113.8630751849
 30
0.0
 11
64.1780362181
 21
115.8641260445
 31
0.0
  0
LINE
  5
34C
330
1F
100
AcDbEntity
  8
0
  6
Continuous
 62
     7
370
    25
100
AcDbLine
 10
65.4780363381
 20
116.6133191765
 30
0.0
 11
64.1780362181
 21
116.6133191765
 31
0.0
  0
LINE
  5
34D
330
1F
100
AcDbEntity
  8
0
  6
Continuous
 62
     7
370
    25
100
AcDbLine
 10
65.4780363381
 20
113.8641760081
 30
0.0
 11
65.4780363381
 21
116.6133191765
 31
0.0
  0
LINE
  5
34E
330
1F
100
AcDbEntity
  8
0
  6
Continuous
 62
     7
370
    25
100
AcDbLine
 10
64.1780362181
 20
116.6983172626
 30
0.0
 11
64.1780362181
 21
123.3279519111
 31
0.0
  0
LINE
  5
34F
330
1F
100
AcDbEntity
  8
0
  6
Continuous
 62
     7
370
    25
100
AcDbLine
 10
64.1780362181
 20
123.3279519111
 30
0.0
 11
65.4780363381
 21
123.3279519111
 31
0.0
  0
LINE
  5
350
330
1F
100
AcDbEntity
  8
0
  6
Continuous
 62
     7
370
    25
100
AcDbLine
 10
65.4780363381
 20
123.3279519111
 30
0.0
 11
65.4780363381
 21
116.6133191765
 31
0.0
  0
LINE
  5
351
330
1F
100
AcDbEntity
  8
0
  6
Continuous
 62
     7
370
    25
100
AcDbLine
 10
65.4780363381
 20
124.5859824449
 30
0.0
 11
64.1780362181
 21
124.5859824449
 31
0.0
  0
LINE
  5
352
330
1F
100
AcDbEntity
  8
0
  6
Continuous
 62
     7
370
    25
100
AcDbLine
 10
64.1780362181
 20
123.3279519111
 30
0.0
 11
64.1780362181
 21
124.5859824449
 31
0.0
  0
LINE
  5
353
330
1F
100
AcDbEntity
  8
0
  6
Continuous
 62
     7
370
    25
100
AcDbLine
 10
65.4780363381
 20
123.3279519111
 30
0.0
 11
65.4780363381
 21
124.5859824449
 31
0.0
  0
LINE
  5
354
330
1F
100
AcDbEntity
  8
0
  6
Continuous
 62
     7
370
    25
100
AcDbLine
 10
64.1780362181
 20
125.4638005376
 30
0.0
 11
65.4780363381
 21
125.4638005376
 31
0.0
  0
LINE
  5
355
330
1F
100
AcDbEntity
  8
0
  6
Continuous
 62
     7
370
    25
100
AcDbLine
 10
64.1780362181
 20
124.5859824449
 30
0.0
 11
64.1780362181
 21
125.4638005376
 31
0.0
  0
LINE
  5
356
330
1F
100
AcDbEntity
  8
0
  6
Continuous
 62
     7
370
    25
100
AcDbLine
 10
65.4780363381
 20
125.4638005376
 30
0.0
 11
65.4780363381
 21
124.5859824449
 31
0.0
  0
LINE
  5
357
330
1F
100
AcDbEntity
  8
0
  6
Continuous
 62
     7
370
    25
100
AcDbLine
 10
64.1780362181
 20
155.1874131292
 30
0.0
 11
65.4780363381
 21
155.1874131292
 31
0.0
  0
LINE
  5
358
330
1F
100
AcDbEntity
  8
0
  6
Continuous
 62
     7
370
    25
100
AcDbLine
 10
64.1780362181
 20
125.4638005376
 30
0.0
 11
64.1780362181
 21
155.1874131292
 31
0.0
  0
LINE
  5
359
330
1F
100
AcDbEntity
  8
0
  6
Continuous
 62
     7
370
    25
100
AcDbLine
 10
65.4780363381
 20
125.4638005376
 30
0.0
 11
65.4780363381
 21
155.1874131292
 31
0.0
  0
LINE
  5
35A
330
1F
100
AcDbEntity
  8
0
  6
Continuous
 62
     7
370
    25
100
AcDbLine
 10
64.1780362181
 20
156.1874132932
 30
0.0
 11
65.4780363381
 21
156.1874132932
 31
0.0
  0
LINE
  5
35B
330
1F
100
AcDbEntity
  8
0
  6
Continuous
 62
     7
370
    25
100
AcDbLine
 10
64.1780362181
 20
155.1874131292
 30
0.0
 11
64.1780362181
 21
156.1874132932
 31
0.0
  0
LINE
  5
35C
330
1F
100
AcDbEntity
  8
0
  6
Continuous
 62
     7
370
    25
100
AcDbLine
 10
65.4780363381
 20
155.1874131292
 30
0.0
 11
65.4780363381
 21
156.1874132932
 31
0.0
  0
LINE
  5
35D
330
1F
100
AcDbEntity
  8
0
  6
Continuous
 62
     7
370
    25
100
AcDbLine
 10
65.4780363381
 20
130.5394247502
 30
0.0
 11
71.0780361966
 21
130.8394251719
 31
0.0
  0
LINE
  5
35E
330
1F
100
AcDbEntity
  8
0
  6
Continuous
 62
     7
370
    25
100
AcDbLine
 10
71.0780361966
 20
131.2394244925
 30
0.0
 11
65.4780363381
 21
131.5394249142
 31
0.0
  0
LINE
  5
35F
330
1F
100
AcDbEntity
  8
0
  6
Continuous
 62
     7
370
    25
100
AcDbLine
 10
71.0780361966
 20
130.8394251719
 30
0.0
 11
71.0780361966
 21
131.2394244925
 31
0.0
  0
LINE
  5
360
330
1F
100
AcDbEntity
  8
0
  6
Continuous
 62
     7
370
    25
100
AcDbLine
 10
71.0780361966
 20
121.2394256473
 30
0.0
 11
65.4780363381
 21
121.5394251377
 31
0.0
  0
LINE
  5
361
330
1F
100
AcDbEntity
  8
0
  6
Continuous
 62
     7
370
    25
100
AcDbLine
 10
71.0780361966
 20
121.2394256473
 30
0.0
 11
71.0780361966
 21
120.8394244641
 31
0.0
  0
LINE
  5
362
330
1F
100
AcDbEntity
  8
0
  6
Continuous
 62
     7
370
    25
100
AcDbLine
 10
65.4780363381
 20
120.5394249738
 30
0.0
 11
71.0780361966
 21
120.8394244641
 31
0.0
  0
LINE
  5
363
330
1F
100
AcDbEntity
  8
0
  6
Continuous
 62
     7
370
    25
100
AcDbLine
 10
65.4780363381
 20
128.5394244224
 30
0.0
 11
71.0780361966
 21
128.8394248441
 31
0.0
  0
LINE
  5
364
330
1F
100
AcDbEntity
  8
0
  6
Continuous
 62
     7
370
    25
100
AcDbLine
 10
71.0780361966
 20
129.239425096
 30
0.0
 11
65.4780363381
 21
129.5394245863
 31
0.0
  0
LINE
  5
365
330
1F
100
AcDbEntity
  8
0
  6
Continuous
 62
     7
370
    25
100
AcDbLine
 10
71.0780361966
 20
128.8394248441
 30
0.0
 11
71.0780361966
 21
129.239425096
 31
0.0
  0
LINE
  5
366
330
1F
100
AcDbEntity
  8
0
  6
Continuous
 62
     7
370
    25
100
AcDbLine
 10
65.4780363381
 20
132.5394250781
 30
0.0
 11
71.0780361966
 21
132.8394245685
 31
0.0
  0
LINE
  5
367
330
1F
100
AcDbEntity
  8
0
  6
Continuous
 62
     7
370
    25
100
AcDbLine
 10
71.0780361966
 20
133.2394248203
 30
0.0
 11
65.4780363381
 21
133.539425242
 31
0.0
  0
LINE
  5
368
330
1F
100
AcDbEntity
  8
0
  6
Continuous
 62
     7
370
    25
100
AcDbLine
 10
71.0780361966
 20
132.8394245685
 30
0.0
 11
71.0780361966
 21
133.2394248203
 31
0.0
  0
LINE
  5
369
330
1F
100
AcDbEntity
  8
0
  6
Continuous
 62
     7
370
    25
100
AcDbLine
 10
65.4780363381
 20
126.5394250259
 30
0.0
 11
71.0780361966
 21
126.8394245163
 31
0.0
  0
LINE
  5
36A
330
1F
100
AcDbEntity
  8
0
  6
Continuous
 62
     7
370
    25
100
AcDbLine
 10
71.0780361966
 20
126.8394245163
 30
0.0
 11
71.0780361966
 21
127.2394247681
 31
0.0
  0
LINE
  5
36B
330
1F
100
AcDbEntity
  8
0
  6
Continuous
 62
     7
370
    25
100
AcDbLine
 10
71.0780361966
 20
127.2394247681
 30
0.0
 11
65.4780363381
 21
127.5394251898
 31
0.0
  0
LINE
  5
36C
330
1F
100
AcDbEntity
  8
0
  6
Continuous
 62
     7
370
    25
100
AcDbLine
 10
65.4780363381
 20
134.5394249402
 30
0.0
 11
71.0780361966
 21
134.8394248963
 31
0.0
  0
LINE
  5
36D
330
1F
100
AcDbEntity
  8
0
  6
Continuous
 62
     7
370
    25
100
AcDbLine
 10
71.0780361966
 20
134.8394248963
 30
0.0
 11
71.0780361966
 21
135.2394246824
 31
0.0
  0
LINE
  5
36E
330
1F
100
AcDbEntity
  8
0
  6
Continuous
 62
     7
370
    25
100
AcDbLine
 10
71.0780361966
 20
135.2394246824
 30
0.0
 11
65.4780363381
 21
135.5394246385
 31
0.0
  0
LINE
  5
36F
330
1F
100
AcDbEntity
  8
0
  6
Continuous
 62
     7
370
    25
100
AcDbLine
 10
65.4780363381
 20
122.5394253016
 30
0.0
 11
71.0780361966
 21
122.839424792
 31
0.0
  0
LINE
  5
370
330
1F
100
AcDbEntity
  8
0
  6
Continuous
 62
     7
370
    25
100
AcDbLine
 10
71.0780361966
 20
123.2394241125
 30
0.0
 11
65.4780363381
 21
123.5394254655
 31
0.0
  0
LINE
  5
371
330
1F
100
AcDbEntity
  8
0
  6
Continuous
 62
     7
370
    25
100
AcDbLine
 10
71.0780361966
 20
122.839424792
 30
0.0
 11
71.0780361966
 21
123.2394241125
 31
0.0
  0
LINE
  5
372
330
1F
100
AcDbEntity
  8
0
  6
Continuous
 62
     7
370
    25
100
AcDbLine
 10
65.4780363381
 20
124.5394256294
 30
0.0
 11
71.0780361966
 21
124.8394251198
 31
0.0
  0
LINE
  5
373
330
1F
100
AcDbEntity
  8
0
  6
Continuous
 62
     7
370
    25
100
AcDbLine
 10
71.0780361966
 20
124.8394251198
 30
0.0
 11
71.0780361966
 21
125.2394244403
 31
0.0
  0
LINE
  5
374
330
1F
100
AcDbEntity
  8
0
  6
Continuous
 62
     7
370
    25
100
AcDbLine
 10
71.0780361966
 20
125.2394244403
 30
0.0
 11
65.4780363381
 21
125.5394239307
 31
0.0
  0
LINE
  5
375
330
1F
100
AcDbEntity
  8
0
  6
Continuous
 62
     7
370
    25
100
AcDbLine
 10
67.4780362002
 20
139.5394248285
 30
0.0
 11
67.4780362002
 21
136.5394248024
 31
0.0
  0
LINE
  5
376
330
1F
100
AcDbEntity
  8
0
  6
Continuous
 62
     7
370
    25
100
AcDbLine
 10
65.4780363381
 20
136.5394248024
 30
0.0
 11
67.4780362002
 21
136.5394248024
 31
0.0
  0
LINE
  5
377
330
1F
100
AcDbEntity
  8
0
  6
Continuous
 62
     7
370
    25
100
AcDbLine
 10
67.4780362002
 20
139.5394248285
 30
0.0
 11
65.4780363381
 21
139.5394248285
 31
0.0
  0
LINE
  5
378
330
1F
100
AcDbEntity
  8
0
  6
Continuous
 62
     7
370
    25
100
AcDbLine
 10
71.0780361966
 20
151.2394249767
 30
0.0
 11
71.0780361966
 21
150.8394247249
 31
0.0
  0
LINE
  5
379
330
1F
100
AcDbEntity
  8
0
  6
Continuous
 62
     7
370
    25
100
AcDbLine
 10
71.0780361966
 20
150.8394247249
 30
0.0
 11
65.4780363381
 21
150.5394252345
 31
0.0
  0
LINE
  5
37A
330
1F
100
AcDbEntity
  8
0
  6
Continuous
 62
     7
370
    25
100
AcDbLine
 10
65.4780363381
 20
151.5394244671
 30
0.0
 11
71.0780361966
 21
151.2394249767
 31
0.0
  0
LINE
  5
37B
330
1F
100
AcDbEntity
  8
0
  6
Continuous
 62
     7
370
    25
100
AcDbLine
 10
71.0780361966
 20
152.8394250527
 30
0.0
 11
65.4780363381
 21
152.539424631
 31
0.0
  0
LINE
  5
37C
330
1F
100
AcDbEntity
  8
0
  6
Continuous
 62
     7
370
    25
100
AcDbLine
 10
71.0780361966
 20
153.2394253046
 30
0.0
 11
71.0780361966
 21
152.8394250527
 31
0.0
  0
LINE
  5
37D
330
1F
100
AcDbEntity
  8
0
  6
Continuous
 62
     7
370
    25
100
AcDbLine
 10
65.4780363381
 20
153.5394247949
 30
0.0
 11
71.0780361966
 21
153.2394253046
 31
0.0
  0
LINE
  5
37E
330
1F
100
AcDbEntity
  8
0
  6
Continuous
 62
     7
370
    25
100
AcDbLine
 10
65.4780363381
 20
149.5394250706
 30
0.0
 11
71.0780361966
 21
149.2394246489
 31
0.0
  0
LINE
  5
37F
330
1F
100
AcDbEntity
  8
0
  6
Continuous
 62
     7
370
    25
100
AcDbLine
 10
71.0780361966
 20
148.8394248627
 30
0.0
 11
65.4780363381
 21
148.5394249067
 31
0.0
  0
LINE
  5
380
330
1F
100
AcDbEntity
  8
0
  6
Continuous
 62
     7
370
    25
100
AcDbLine
 10
71.0780361966
 20
149.2394246489
 30
0.0
 11
71.0780361966
 21
148.8394248627
 31
0.0
  0
LINE
  5
381
330
1F
100
AcDbEntity
  8
0
  6
Continuous
 62
     7
370
    25
100
AcDbLine
 10
71.0780361966
 20
154.8394244492
 30
0.0
 11
71.0780361966
 21
155.2394247011
 31
0.0
  0
LINE
  5
382
330
1F
100
AcDbEntity
  8
0
  6
Continuous
 62
     7
370
    25
100
AcDbLine
 10
65.4780363381
 20
155.5394251228
 30
0.0
 11
71.0780361966
 21
155.2394247011
 31
0.0
  0
LINE
  5
383
330
1F
100
AcDbEntity
  8
0
  6
Continuous
 62
     7
370
    25
100
AcDbLine
 10
71.0780361966
 20
154.8394244492
 30
0.0
 11
65.4780363381
 21
154.5394249589
 31
0.0
  0
LINE
  5
384
330
1F
100
AcDbEntity
  8
0
  6
Continuous
 62
     7
370
    25
100
AcDbLine
 10
65.4780363381
 20
143.5394247856
 30
0.0
 11
71.0780361966
 21
143.2394248296
 31
0.0
  0
LINE
  5
385
330
1F
100
AcDbEntity
  8
0
  6
Continuous
 62
     7
370
    25
100
AcDbLine
 10
71.0780361966
 20
143.2394248296
 30
0.0
 11
71.0780361966
 21
142.8394248106
 31
0.0
  0
LINE
  5
386
330
1F
100
AcDbEntity
  8
0
  6
Continuous
 62
     7
370
    25
100
AcDbLine
 10
71.0780361966
 20
142.8394248106
 30
0.0
 11
65.4780363381
 21
142.5394248546
 31
0.0
  0
LINE
  5
387
330
1F
100
AcDbEntity
  8
0
  6
Continuous
 62
     7
370
    25
100
AcDbLine
 10
71.0780361966
 20
144.8394249056
 30
0.0
 11
65.4780363381
 21
144.5394249495
 31
0.0
  0
LINE
  5
388
330
1F
100
AcDbEntity
  8
0
  6
Continuous
 62
     7
370
    25
100
AcDbLine
 10
71.0780361966
 20
145.2394249246
 30
0.0
 11
71.0780361966
 21
144.8394249056
 31
0.0
  0
LINE
  5
389
330
1F
100
AcDbEntity
  8
0
  6
Continuous
 62
     7
370
    25
100
AcDbLine
 10
65.4780363381
 20
145.5394248806
 30
0.0
 11
71.0780361966
 21
145.2394249246
 31
0.0
  0
LINE
  5
38A
330
1F
100
AcDbEntity
  8
0
  6
Continuous
 62
     7
370
    25
100
AcDbLine
 10
65.4780363381
 20
147.5394247428
 30
0.0
 11
71.0780361966
 21
147.2394247868
 31
0.0
  0
LINE
  5
38B
330
1F
100
AcDbEntity
  8
0
  6
Continuous
 62
     7
370
    25
100
AcDbLine
 10
71.0780361966
 20
147.2394247868
 30
0.0
 11
71.0780361966
 21
146.8394250006
 31
0.0
  0
LINE
  5
38C
330
1F
100
AcDbEntity
  8
0
  6
Continuous
 62
     7
370
    25
100
AcDbLine
 10
71.0780361966
 20
146.8394250006
 30
0.0
 11
65.4780363381
 21
146.5394250445
 31
0.0
  0
LINE
  5
38D
330
1F
100
AcDbEntity
  8
0
  6
Continuous
 62
     7
370
    25
100
AcDbLine
 10
71.0780361966
 20
141.239424851
 30
0.0
 11
71.0780361966
 21
140.839424832
 31
0.0
  0
LINE
  5
38E
330
1F
100
AcDbEntity
  8
0
  6
Continuous
 62
     7
370
    25
100
AcDbLine
 10
71.0780361966
 20
140.839424832
 30
0.0
 11
65.4780363381
 21
140.539424876
 31
0.0
  0
LINE
  5
38F
330
1F
100
AcDbEntity
  8
0
  6
Continuous
 62
     7
370
    25
100
AcDbLine
 10
65.4780363381
 20
141.5394248434
 30
0.0
 11
71.0780361966
 21
141.239424851
 31
0.0
  0
LINE
  5
390
330
1F
100
AcDbEntity
  8
0
  6
Continuous
 62
     7
370
    25
100
AcDbLine
 10
64.1780362181
 20
157.1874134571
 30
0.0
 11
65.4780363381
 21
157.1874134571
 31
0.0
  0
LINE
  5
391
330
1F
100
AcDbEntity
  8
0
  6
Continuous
 62
     7
370
    25
100
AcDbLine
 10
64.1780362181
 20
156.1874132932
 30
0.0
 11
64.1780362181
 21
157.1874134571
 31
0.0
  0
LINE
  5
392
330
1F
100
AcDbEntity
  8
0
  6
Continuous
 62
     7
370
    25
100
AcDbLine
 10
65.4780363381
 20
157.1874134571
 30
0.0
 11
65.4780363381
 21
156.1874132932
 31
0.0
  0
LINE
  5
393
330
1F
100
AcDbEntity
  8
0
  6
Continuous
 62
     7
370
    25
100
AcDbLine
 10
63.3780361801
 20
161.1874141127
 30
0.0
 11
65.4780363381
 21
161.1874141127
 31
0.0
  0
LINE
  5
394
330
1F
100
AcDbEntity
  8
0
  6
Continuous
 62
     7
370
    25
100
AcDbLine
 10
63.3780361801
 20
162.9373636425
 30
0.0
 11
63.3780361801
 21
161.1874141127
 31
0.0
  0
LINE
  5
395
330
1F
100
AcDbEntity
  8
0
  6
Continuous
 62
     7
370
    25
100
AcDbLine
 10
65.4780363381
 20
162.9373636425
 30
0.0
 11
65.4780363381
 21
161.1874141127
 31
0.0
  0
LINE
  5
396
330
1F
100
AcDbEntity
  8
0
  6
Continuous
 62
     7
370
    25
100
AcDbLine
 10
62.178036356
 20
160.1374131024
 30
0.0
 11
62.178036356
 21
158.3374142975
 31
0.0
  0
LINE
  5
397
330
1F
100
AcDbEntity
  8
0
  6
Continuous
 62
     7
370
    25
100
AcDbLine
 10
64.1780362181
 20
158.3374142975
 30
0.0
 11
62.178036356
 21
158.3374142975
 31
0.0
  0
LINE
  5
398
330
1F
100
AcDbEntity
  8
0
  6
Continuous
 62
     7
370
    25
100
AcDbLine
 10
62.178036356
 20
160.1374131024
 30
0.0
 11
63.3780361801
 21
160.1374131024
 31
0.0
  0
LINE
  5
399
330
1F
100
AcDbEntity
  8
0
  6
Continuous
 62
     7
370
    25
100
AcDbLine
 10
63.3780361801
 20
160.1374131024
 30
0.0
 11
63.3780361801
 21
161.1874141127
 31
0.0
  0
LINE
  5
39A
330
1F
100
AcDbEntity
  8
0
  6
Continuous
 62
     7
370
    25
100
AcDbLine
 10
64.1780362181
 20
157.1874134571
 30
0.0
 11
64.1780362181
 21
158.3374142975
 31
0.0
  0
LINE
  5
39B
330
1F
100
AcDbEntity
  8
0
  6
Continuous
 62
     7
370
    25
100
AcDbLine
 10
65.4780363381
 20
161.1874141127
 30
0.0
 11
65.4780363381
 21
157.1874134571
 31
0.0
  0
LINE
  5
39C
330
1F
100
AcDbEntity
  8
0
  6
Continuous
 62
     7
370
    25
100
AcDbLine
 10
62.178036356
 20
162.9373636425
 30
0.0
 11
62.178036356
 21
161.1874141127
 31
0.0
  0
LINE
  5
39D
330
1F
100
AcDbEntity
  8
0
  6
Continuous
 62
     7
370
    25
100
AcDbLine
 10
62.178036356
 20
161.1874141127
 30
0.0
 11
62.178036356
 21
160.1374131024
 31
0.0
  0
LINE
  5
39E
330
1F
100
AcDbEntity
  8
0
  6
Continuous
 62
     8
370
    25
100
AcDbLine
 10
63.3780361801
 20
161.1874141127
 30
0.0
 11
62.178036356
 21
161.1874141127
 31
0.0
  0
LINE
  5
39F
330
1F
100
AcDbEntity
  8
0
  6
Continuous
 62
     7
370
    18
100
AcDbLine
 10
139.1011827242
 20
138.1562379897
 30
0.0
 11
138.2175157322
 21
138.1562379897
 31
0.0
  0
LINE
  5
3A0
330
1F
100
AcDbEntity
  8
0
  6
Continuous
 62
     7
370
    18
100
AcDbLine
 10
138.2175157322
 20
138.1562379897
 30
0.0
 11
138.2175157322
 21
138.6483009779
 31
0.0
  0
LINE
  5
3A1
330
1F
100
AcDbEntity
  8
0
  6
Continuous
 62
     7
370
    18
100
AcDbLine
 10
137.976005926
 20
138.6483009779
 30
0.0
 11
137.976005926
 21
137.4226910335
 31
0.0
  0
LINE
  5
3A2
330
1F
100
AcDbEntity
  8
0
  6
Continuous
 62
     7
370
    18
100
AcDbLine
 10
138.2175157322
 20
137.4226910335
 30
0.0
 11
138.2175157322
 21
137.9147540217
 31
0.0
  0
LINE
  5
3A3
330
1F
100
AcDbEntity
  8
0
  6
Continuous
 62
     7
370
    18
100
AcDbLine
 10
138.2175157322
 20
137.9147540217
 30
0.0
 11
139.1035340019
 21
137.9148056981
 31
0.0
  0
LINE
  5
3A4
330
1F
100
AcDbEntity
  8
0
  6
Continuous
 62
     7
370
    18
100
AcDbLine
 10
139.4838983816
 20
137.8753249039
 30
0.0
 11
139.4850869396
 21
137.8750148453
 31
0.0
  0
LINE
  5
3A5
330
1F
100
AcDbEntity
  8
0
  6
Continuous
 62
     7
370
    18
100
AcDbLine
 10
140.6857888436
 20
137.4877516618
 30
0.0
 11
140.6827916105
 21
137.4926092464
 31
0.0
  0
LINE
  5
3A6
330
1F
100
AcDbEntity
  8
0
  6
Continuous
 62
     7
370
    18
100
AcDbLine
 10
139.9079810231
 20
138.0006919286
 30
0.0
 11
139.8170305023
 21
138.0431182795
 31
0.0
  0
LINE
  5
3A7
330
1F
100
AcDbEntity
  8
0
  6
Continuous
 62
     7
370
    18
100
AcDbLine
 10
139.8170305023
 20
138.0431182795
 30
0.0
 11
139.9096088308
 21
138.0863714533
 31
0.0
  0
LINE
  5
3A8
330
1F
100
AcDbEntity
  8
0
  6
Continuous
 62
     7
370
    18
100
AcDbLine
 10
143.6363580974
 20
138.6635972019
 30
0.0
 11
143.6363580974
 21
138.1714825373
 31
0.0
  0
LINE
  5
3A9
330
1F
100
AcDbEntity
  8
0
  6
Continuous
 62
     7
370
    18
100
AcDbLine
 10
143.6363580974
 20
138.1714825373
 30
0.0
 11
141.4062358242
 21
138.1714825373
 31
0.0
  0
LINE
  5
3AA
330
1F
100
AcDbEntity
  8
0
  6
Continuous
 62
     7
370
    18
100
AcDbLine
 10
141.4062358242
 20
138.1714825373
 30
0.0
 11
141.4062358242
 21
138.6635972019
 31
0.0
  0
LINE
  5
3AB
330
1F
100
AcDbEntity
  8
0
  6
Continuous
 62
     7
370
    18
100
AcDbLine
 10
141.1596358894
 20
138.6635972019
 30
0.0
 11
141.1596358894
 21
137.4379355811
 31
0.0
  0
LINE
  5
3AC
330
1F
100
AcDbEntity
  8
0
  6
Continuous
 62
     7
370
    18
100
AcDbLine
 10
141.4062358242
 20
137.4379355811
 30
0.0
 11
141.4062358242
 21
137.9300502457
 31
0.0
  0
LINE
  5
3AD
330
1F
100
AcDbEntity
  8
0
  6
Continuous
 62
     7
370
    18
100
AcDbLine
 10
141.4062358242
 20
137.9300502457
 30
0.0
 11
143.6363580974
 21
137.9300502457
 31
0.0
  0
LINE
  5
3AE
330
1F
100
AcDbEntity
  8
0
  6
Continuous
 62
     7
370
    18
100
AcDbLine
 10
143.6363580974
 20
137.9300502457
 30
0.0
 11
143.6363580974
 21
137.4379355811
 31
0.0
  0
LINE
  5
3AF
330
1F
100
AcDbEntity
  8
0
  6
Continuous
 62
     7
370
    18
100
AcDbLine
 10
143.6681391033
 20
137.3527728207
 30
0.0
 11
143.6726349529
 21
137.3479669125
 31
0.0
  0
LINE
  5
3B0
330
1F
100
AcDbEntity
  8
0
  6
Continuous
 62
     7
370
    18
100
AcDbLine
 10
143.8829580322
 20
137.4379355811
 30
0.0
 11
143.8829580322
 21
138.6635972019
 31
0.0
  0
LINE
  5
3B1
330
1F
100
AcDbEntity
  8
0
  6
Continuous
 62
     7
370
    18
100
AcDbLine
 10
146.7906875237
 20
137.523046665
 30
0.0
 11
145.9105345291
 21
138.6983237643
 31
0.0
  0
LINE
  5
3B2
330
1F
100
AcDbEntity
  8
0
  6
Continuous
 62
     7
370
    18
100
AcDbLine
 10
145.2496704749
 20
138.6875750664
 30
0.0
 11
144.3779924153
 21
137.511212762
 31
0.0
  0
LINE
  5
3B3
330
1F
100
AcDbEntity
  8
0
  6
Continuous
 62
     7
370
    18
100
AcDbLine
 10
144.3801369872
 20
137.3476568539
 30
0.0
 11
144.3846328368
 21
137.3428509457
 31
0.0
  0
LINE
  5
3B4
330
1F
100
AcDbEntity
  8
0
  6
Continuous
 62
     7
370
    18
100
AcDbLine
 10
144.5682133625
 20
137.3527728207
 30
0.0
 11
145.412502913
 21
138.4767352227
 31
0.0
  0
LINE
  5
3B5
330
1F
100
AcDbEntity
  8
0
  6
Continuous
 62
     7
370
    18
100
AcDbLine
 10
145.768501855
 20
138.4817995131
 30
0.0
 11
146.613075626
 21
137.3523594092
 31
0.0
  0
LINE
  5
3B6
330
1F
100
AcDbEntity
  8
0
  6
Continuous
 62
     7
370
    18
100
AcDbLine
 10
146.7979222242
 20
137.3392335954
 30
0.0
 11
146.802676456
 21
137.3453314144
 31
0.0
  0
LINE
  5
3B7
330
1F
100
AcDbEntity
  8
0
  6
Continuous
 62
     7
370
    18
100
AcDbLine
 10
149.5166193264
 20
138.7766652357
 30
0.0
 11
147.4162307364
 21
138.7766652357
 31
0.0
  0
LINE
  5
3B8
330
1F
100
AcDbEntity
  8
0
  6
Continuous
 62
     7
370
    18
100
AcDbLine
 10
147.4162307364
 20
138.5301169773
 30
0.0
 11
149.4454092027
 21
138.5301169773
 31
0.0
  0
LINE
  5
3B9
330
1F
100
AcDbEntity
  8
0
  6
Continuous
 62
     7
370
    18
100
AcDbLine
 10
149.4454092027
 20
137.5561195817
 30
0.0
 11
147.5395307039
 21
137.5561195817
 31
0.0
  0
LINE
  5
3BA
330
1F
100
AcDbEntity
  8
0
  6
Continuous
 62
     7
370
    18
100
AcDbLine
 10
147.5395307039
 20
137.5561195817
 30
0.0
 11
147.5395307039
 21
138.0482342463
 31
0.0
  0
LINE
  5
3BB
330
1F
100
AcDbEntity
  8
0
  6
Continuous
 62
     7
370
    18
100
AcDbLine
 10
147.2929824455
 20
138.0482342463
 30
0.0
 11
147.2929824455
 21
137.4328712907
 31
0.0
  0
LINE
  5
3BC
330
1F
100
AcDbEntity
  8
0
  6
Continuous
 62
     7
370
    18
100
AcDbLine
 10
147.4111664461
 20
137.3146872901
 30
0.0
 11
149.5541880927
 21
137.3147389665
 31
0.0
  0
LINE
  5
3BD
330
1F
100
AcDbEntity
  8
0
  6
Continuous
 62
     7
370
    18
100
AcDbLine
 10
152.9443687559
 20
137.5179823747
 30
0.0
 11
152.0641640849
 21
138.693259474
 31
0.0
  0
LINE
  5
3BE
330
1F
100
AcDbEntity
  8
0
  6
Continuous
 62
     7
370
    18
100
AcDbLine
 10
151.4033258689
 20
138.6825107761
 30
0.0
 11
150.5316994857
 21
137.5061484717
 31
0.0
  0
LINE
  5
3BF
330
1F
100
AcDbEntity
  8
0
  6
Continuous
 62
     7
370
    18
100
AcDbLine
 10
150.5338182194
 20
137.3425925635
 30
0.0
 11
150.5385207747
 21
137.3375799496
 31
0.0
  0
LINE
  5
3C0
330
1F
100
AcDbEntity
  8
0
  6
Continuous
 62
     7
370
    18
100
AcDbLine
 10
150.7151508202
 20
137.3558217302
 30
0.0
 11
151.5609899104
 21
138.4817478367
 31
0.0
  0
LINE
  5
3C1
330
1F
100
AcDbEntity
  8
0
  6
Continuous
 62
     7
370
    18
100
AcDbLine
 10
151.9170929586
 20
138.4869154799
 30
0.0
 11
152.7616408914
 21
137.3574236996
 31
0.0
  0
LINE
  5
3C2
330
1F
100
AcDbEntity
  8
0
  6
Continuous
 62
     7
370
    18
100
AcDbLine
 10
155.8584544485
 20
138.1714825373
 30
0.0
 11
153.8648810441
 21
138.1714825373
 31
0.0
  0
LINE
  5
3C3
330
1F
100
AcDbEntity
  8
0
  6
Continuous
 62
     7
370
    18
100
AcDbLine
 10
153.8648810441
 20
138.5402972344
 30
0.0
 11
156.0619045624
 21
138.5402972344
 31
0.0
  0
LINE
  5
3C4
330
1F
100
AcDbEntity
  8
0
  6
Continuous
 62
     7
370
    18
100
AcDbLine
 10
156.0619045624
 20
138.7868454928
 30
0.0
 11
153.8750613012
 21
138.7868454928
 31
0.0
  0
LINE
  5
3C5
330
1F
100
AcDbEntity
  8
0
  6
Continuous
 62
     7
370
    18
100
AcDbLine
 10
153.8750613012
 20
137.9300502457
 30
0.0
 11
155.8788149628
 21
137.9300502457
 31
0.0
  0
LINE
  5
3C6
330
1F
100
AcDbEntity
  8
0
  6
Continuous
 62
     7
370
    18
100
AcDbLine
 10
155.8838792532
 20
137.5662998388
 30
0.0
 11
153.6817914445
 21
137.5662998388
 31
0.0
  0
LINE
  5
3C7
330
1F
100
AcDbEntity
  8
0
  6
Continuous
 62
     7
370
    18
100
AcDbLine
 10
153.6817914445
 20
137.3197515804
 30
0.0
 11
155.8267251191
 21
137.3197515804
 31
0.0
  0
LINE
  5
3C8
330
1F
100
AcDbEntity
  8
0
  6
Continuous
 62
     7
370
    18
100
AcDbLine
 10
155.8267251191
 20
137.3197515804
 30
0.0
 11
155.8267251191
 21
137.3146872901
 31
0.0
  0
LINE
  5
3C9
330
1F
100
AcDbEntity
  8
0
  6
Continuous
 62
     7
370
    18
100
AcDbLine
 10
155.8267251191
 20
137.3146872901
 30
0.0
 11
155.8584544485
 21
137.3146872901
 31
0.0
  0
SPLINE
  5
3CA
330
1F
100
AcDbEntity
  8
0
  6
Continuous
 62
     5
370
     0
100
AcDbSpline
210
0.0
220
0.0
230
1.0
 70
     8
 71
     3
 72
    41
 73
    37
 74
     0
 42
0.000000001
 43
0.00000001
 40
0.0
 40
0.0
 40
0.0
 40
0.0
 40
1.0
 40
2.0
 40
3.0
 40
4.0
 40
5.0
 40
6.0
 40
7.0
 40
8.0
 40
9.0
 40
10.0
 40
11.0
 40
12.0
 40
13.0
 40
14.0
 40
15.0
 40
16.0
 40
17.0
 40
18.0
 40
19.0
 40
20.0
 40
21.0
 40
22.0
 40
23.0
 40
24.0
 40
25.0
 40
26.0
 40
27.0
 40
28.0
 40
29.0
 40
30.0
 40
31.0
 40
32.0
 40
33.0
 40
34.0
 40
34.0
 40
34.0
 40
34.0
 10
140.0397300872395
 20
138.1520005222915
 30
0.0
 10
140.0609174244738
 20
138.162284132315
 30
0.0
 10
140.0817430266821
 20
138.1724127130416
 30
0.0
 10
140.1019743499193
 20
138.1825412937683
 30
0.0
 10
140.1644769947604
 20
138.2138055352969
 30
0.0
 10
140.2220703785351
 20
138.2504441257826
 30
0.0
 10
140.2777517343154
 20
138.2858941583258
 30
0.0
 10
140.3330713550698
 20
138.3210858087076
 30
0.0
 10
140.3903030038185
 20
138.3574660170318
 30
0.0
 10
140.4472245939736
 20
138.3988588392871
 30
0.0
 10
140.5032676847799
 20
138.4396315443551
 30
0.0
 10
140.5644267423818
 20
138.4855202162186
 30
0.0
 10
140.6255857999837
 20
138.5313572116498
 30
0.0
 10
140.6463338875436
 20
138.5469118177657
 30
0.0
 10
140.6696916349336
 20
138.5644301283082
 30
0.0
 10
140.6835925952166
 20
138.5892864922343
 30
0.0
 10
140.6993280688454
 20
138.6080967135838
 30
0.0
 10
140.6993280688454
 20
138.6311444023801
 30
0.0
 10
140.6993280688454
 20
138.6483009778967
 30
0.0
 10
140.6993280688454
 20
138.686179802757
 30
0.0
 10
140.6823523608419
 20
138.7137233411616
 30
0.0
 10
140.6646015063541
 20
138.7368743828224
 30
0.0
 10
140.6138810880725
 20
138.7876206393201
 30
0.0
 10
140.5553316903007
 20
138.7869488457005
 30
0.0
 10
140.4837598315947
 20
138.7333603854274
 30
0.0
 10
140.3847994637809
 20
138.6641139661739
 30
0.0
 10
140.2824801278689
 20
138.5924904310356
 30
0.0
 10
140.1769826913718
 20
138.5221588067042
 30
0.0
 10
140.0794434254457
 20
138.4571498548976
 30
0.0
 10
139.9709487558765
 20
138.3963266941055
 30
0.0
 10
139.8452458343585
 20
138.3362270033653
 30
0.0
 10
139.723728703855
 20
138.2780910170517
 30
0.0
 10
139.6026508230259
 20
138.2343727553438
 30
0.0
 10
139.4842342784591
 20
138.2059507175906
 30
0.0
 10
139.3665153657281
 20
138.1729811537967
 30
0.0
 10
139.2376343436249
 20
138.1562379897384
 30
0.0
 10
139.1011827241929
 20
138.1562379897384
 30
0.0
  0
SPLINE
  5
3CB
330
1F
100
AcDbEntity
  8
0
  6
Continuous
 62
     5
370
     0
100
AcDbSpline
210
0.0
220
0.0
230
1.0
 70
     8
 71
     3
 72
    14
 73
    10
 74
     0
 42
0.000000001
 43
0.00000001
 40
0.0
 40
0.0
 40
0.0
 40
0.0
 40
1.0
 40
2.0
 40
3.0
 40
4.0
 40
5.0
 40
6.0
 40
7.0
 40
7.0
 40
7.0
 40
7.0
 10
138.2175157322263
 20
138.6483009778967
 30
0.0
 10
138.2175157322263
 20
138.686179802757
 30
0.0
 10
138.2005400242227
 20
138.7137233411616
 30
0.0
 10
138.182789169735
 20
138.7368743828224
 30
0.0
 10
138.1321462661018
 20
138.7875172864556
 30
0.0
 10
138.0613753920961
 20
138.7875172864556
 30
0.0
 10
138.0107324884629
 20
138.7368743828224
 30
0.0
 10
137.9801400405539
 20
138.7062819349134
 30
0.0
 10
137.9760059259715
 20
138.6749143405202
 30
0.0
 10
137.9760059259715
 20
138.6483009778967
 30
0.0
  0
SPLINE
  5
3CC
330
1F
100
AcDbEntity
  8
0
  6
Continuous
 62
     5
370
     0
100
AcDbSpline
210
0.0
220
0.0
230
1.0
 70
     8
 71
     3
 72
    17
 73
    13
 74
     0
 42
0.000000001
 43
0.00000001
 40
0.0
 40
0.0
 40
0.0
 40
0.0
 40
1.0
 40
2.0
 40
3.0
 40
4.0
 40
5.0
 40
6.0
 40
7.0
 40
8.0
 40
9.0
 40
10.0
 40
10.0
 40
10.0
 40
10.0
 10
137.9760059259715
 20
137.4226910335416
 30
0.0
 10
137.9760059259715
 20
137.3848122086813
 30
0.0
 10
137.9929816339752
 20
137.3572686702767
 30
0.0
 10
138.0107324884629
 20
137.3341176286158
 30
0.0
 10
138.0360539402795
 20
137.3087961767992
 30
0.0
 10
138.0663880060271
 20
137.2961354508909
 30
0.0
 10
138.0967479099909
 20
137.2961354508909
 30
0.0
 10
138.1271078139546
 20
137.2961354508909
 30
0.0
 10
138.1574677179184
 20
137.3087961767992
 30
0.0
 10
138.182789169735
 20
137.3341176286158
 30
0.0
 10
138.213381617644
 20
137.3647100765248
 30
0.0
 10
138.2175157322263
 20
137.396077670918
 30
0.0
 10
138.2175157322263
 20
137.4226910335416
 30
0.0
  0
SPLINE
  5
3CD
330
1F
100
AcDbEntity
  8
0
  6
Continuous
 62
     5
370
     0
100
AcDbSpline
210
0.0
220
0.0
230
1.0
 70
     8
 71
     3
 72
     8
 73
     4
 74
     0
 42
0.000000001
 43
0.00000001
 40
0.0
 40
0.0
 40
0.0
 40
0.0
 40
1.0
 40
1.0
 40
1.0
 40
1.0
 10
139.1035340018616
 20
137.9148056981321
 30
0.0
 10
139.2332160086651
 20
137.9243658381037
 30
0.0
 10
139.3611410167711
 20
137.911084995008
 30
0.0
 10
139.4838983816493
 20
137.8753249038711
 30
0.0
  0
SPLINE
  5
3CE
330
1F
100
AcDbEntity
  8
0
  6
Continuous
 62
     5
370
     0
100
AcDbSpline
210
0.0
220
0.0
230
1.0
 70
     8
 71
     3
 72
    23
 73
    19
 74
     0
 42
0.000000001
 43
0.00000001
 40
0.0
 40
0.0
 40
0.0
 40
0.0
 40
1.0
 40
2.0
 40
3.0
 40
4.0
 40
5.0
 40
6.0
 40
7.0
 40
8.0
 40
9.0
 40
10.0
 40
11.0
 40
12.0
 40
13.0
 40
14.0
 40
15.0
 40
16.0
 40
16.0
 40
16.0
 40
16.0
 10
139.4850869395917
 20
137.8750148452775
 30
0.0
 10
139.6059581146917
 20
137.8448358088267
 30
0.0
 10
139.7304983164835
 20
137.7998256363119
 30
0.0
 10
139.8452458343585
 20
137.7449452652318
 30
0.0
 10
139.9605876312046
 20
137.6898065119904
 30
0.0
 10
140.0725187835204
 20
137.6287249690369
 30
0.0
 10
140.177008529588
 20
137.5640777522562
 30
0.0
 10
140.2840045826211
 20
137.4927642757116
 30
0.0
 10
140.3869957121527
 20
137.4206239762504
 30
0.0
 10
140.4843024341336
 20
137.3526694678038
 30
0.0
 10
140.5521277514994
 20
137.2952052751099
 30
0.0
 10
140.6127700447785
 20
137.2924664241991
 30
0.0
 10
140.6646015063541
 20
137.3442978857747
 30
0.0
 10
140.6951939542631
 20
137.3748903336837
 30
0.0
 10
140.6993280688454
 20
137.4062579280769
 30
0.0
 10
140.6993280688454
 20
137.4328712907005
 30
0.0
 10
140.6993280688454
 20
137.4579860367879
 30
0.0
 10
140.6898712817384
 20
137.4795867854805
 30
0.0
 10
140.6857888435884
 20
137.4877516617805
 30
0.0
  0
SPLINE
  5
3CF
330
1F
100
AcDbEntity
  8
0
  6
Continuous
 62
     5
370
     0
100
AcDbSpline
210
0.0
220
0.0
230
1.0
 70
     8
 71
     3
 72
    26
 73
    22
 74
     0
 42
0.000000001
 43
0.00000001
 40
0.0
 40
0.0
 40
0.0
 40
0.0
 40
1.0
 40
2.0
 40
3.0
 40
4.0
 40
5.0
 40
6.0
 40
7.0
 40
8.0
 40
9.0
 40
10.0
 40
11.0
 40
12.0
 40
13.0
 40
14.0
 40
15.0
 40
16.0
 40
17.0
 40
18.0
 40
19.0
 40
19.0
 40
19.0
 40
19.0
 10
140.6827916105162
 20
137.4926092464147
 30
0.0
 10
140.6657900642965
 20
137.5152435237528
 30
0.0
 10
140.6481425626733
 20
137.5328651871598
 30
0.0
 10
140.6258958585773
 20
137.5495566747859
 30
0.0
 10
140.6042692716687
 20
137.5661964859797
 30
0.0
 10
140.5837278898379
 20
137.5817510920956
 30
0.0
 10
140.563909978059
 20
137.5967372574564
 30
0.0
 10
140.5234473315847
 20
137.6273813817977
 30
0.0
 10
140.4860335946149
 20
137.6556483902542
 30
0.0
 10
140.4463719328409
 20
137.6879978368607
 30
0.0
 10
140.3908197681413
 20
137.7283571304704
 30
0.0
 10
140.3333814136635
 20
137.7701116877516
 30
0.0
 10
140.2777517343154
 20
137.8003424006347
 30
0.0
 10
140.2240599211778
 20
137.8345521988032
 30
0.0
 10
140.1636243336278
 20
137.870105584211
 30
0.0
 10
140.1019743499193
 20
137.9037469416244
 30
0.0
 10
140.0821564381403
 20
137.9136171401897
 30
0.0
 10
140.0623126881453
 20
137.9241074559422
 30
0.0
 10
140.0421330413404
 20
137.9347528009917
 30
0.0
 10
139.9998100433042
 20
137.9570253433039
 30
0.0
 10
139.956040105164
 20
137.9801247085324
 30
0.0
 10
139.9079810231448
 20
138.0006919285794
 30
0.0
  0
SPLINE
  5
3D0
330
1F
100
AcDbEntity
  8
0
  6
Continuous
 62
     5
370
     0
100
AcDbSpline
210
0.0
220
0.0
230
1.0
 70
     8
 71
     3
 72
     8
 73
     4
 74
     0
 42
0.000000001
 43
0.00000001
 40
0.0
 40
0.0
 40
0.0
 40
0.0
 40
1.0
 40
1.0
 40
1.0
 40
1.0
 10
139.9096088307616
 20
138.0863714532975
 30
0.0
 10
139.9534821217663
 20
138.1099875828489
 30
0.0
 10
139.997381250987
 20
138.1313816258123
 30
0.0
 10
140.0397300872395
 20
138.1520005222915
 30
0.0
  0
SPLINE
  5
3D1
330
1F
100
AcDbEntity
  8
0
  6
Continuous
 62
     5
370
     0
100
AcDbSpline
210
0.0
220
0.0
230
1.0
 70
     8
 71
     3
 72
     8
 73
     4
 74
     0
 42
0.000000001
 43
0.00000001
 40
0.0
 40
0.0
 40
0.0
 40
0.0
 40
1.0
 40
1.0
 40
1.0
 40
1.0
 10
143.6710846598994
 20
138.7521189303446
 30
0.0
 10
143.6404922119904
 20
138.7215264824356
 30
0.0
 10
143.636358097408
 20
138.6902105644747
 30
0.0
 10
143.636358097408
 20
138.6635972018511
 30
0.0
  0
SPLINE
  5
3D2
330
1F
100
AcDbEntity
  8
0
  6
Continuous
 62
     5
370
     0
100
AcDbSpline
210
0.0
220
0.0
230
1.0
 70
     8
 71
     3
 72
    14
 73
    10
 74
     0
 42
0.000000001
 43
0.00000001
 40
0.0
 40
0.0
 40
0.0
 40
0.0
 40
1.0
 40
2.0
 40
3.0
 40
4.0
 40
5.0
 40
6.0
 40
7.0
 40
7.0
 40
7.0
 40
7.0
 10
141.4062358242026
 20
138.6635972018511
 30
0.0
 10
141.4062358242026
 20
138.7014243502792
 30
0.0
 10
141.389260116199
 20
138.7289678886838
 30
0.0
 10
141.3715092617113
 20
138.7521189303446
 30
0.0
 10
141.3243286790407
 20
138.7992995130151
 30
0.0
 10
141.2488547568408
 20
138.7998679537702
 30
0.0
 10
141.1943624518597
 20
138.7521189303446
 30
0.0
 10
141.1637700039507
 20
138.7215264824356
 30
0.0
 10
141.1596358893684
 20
138.6902105644747
 30
0.0
 10
141.1596358893684
 20
138.6635972018511
 30
0.0
  0
SPLINE
  5
3D3
330
1F
100
AcDbEntity
  8
0
  6
Continuous
 62
     5
370
     0
100
AcDbSpline
210
0.0
220
0.0
230
1.0
 70
     8
 71
     3
 72
    14
 73
    10
 74
     0
 42
0.000000001
 43
0.00000001
 40
0.0
 40
0.0
 40
0.0
 40
0.0
 40
1.0
 40
2.0
 40
3.0
 40
4.0
 40
5.0
 40
6.0
 40
7.0
 40
7.0
 40
7.0
 40
7.0
 10
141.1596358893684
 20
137.4379355810638
 30
0.0
 10
141.1596358893684
 20
137.4000050797712
 30
0.0
 10
141.1766374355881
 20
137.3725132177989
 30
0.0
 10
141.1943624518597
 20
137.3494138525703
 30
0.0
 10
141.2415430345302
 20
137.3022332698998
 30
0.0
 10
141.3170423020894
 20
137.3016648291448
 30
0.0
 10
141.3714834234951
 20
137.349362176138
 30
0.0
 10
141.4022825771332
 20
137.3801096533439
 30
0.0
 10
141.4062358242026
 20
137.4128725114086
 30
0.0
 10
141.4062358242026
 20
137.4379355810638
 30
0.0
  0
SPLINE
  5
3D4
330
1F
100
AcDbEntity
  8
0
  6
Continuous
 62
     5
370
     0
100
AcDbSpline
210
0.0
220
0.0
230
1.0
 70
     8
 71
     3
 72
     8
 73
     4
 74
     0
 42
0.000000001
 43
0.00000001
 40
0.0
 40
0.0
 40
0.0
 40
0.0
 40
1.0
 40
1.0
 40
1.0
 40
1.0
 10
143.636358097408
 20
137.4379355810638
 30
0.0
 10
143.636358097408
 20
137.4000050797712
 30
0.0
 10
143.6533596436277
 20
137.3725132177989
 30
0.0
 10
143.6681391032595
 20
137.3527728206685
 30
0.0
  0
SPLINE
  5
3D5
330
1F
100
AcDbEntity
  8
0
  6
Continuous
 62
     5
370
     0
100
AcDbSpline
210
0.0
220
0.0
230
1.0
 70
     8
 71
     3
 72
    14
 73
    10
 74
     0
 42
0.000000001
 43
0.00000001
 40
0.0
 40
0.0
 40
0.0
 40
0.0
 40
1.0
 40
2.0
 40
3.0
 40
4.0
 40
5.0
 40
6.0
 40
7.0
 40
7.0
 40
7.0
 40
7.0
 10
143.6726349528678
 20
137.3479669124665
 30
0.0
 10
143.6988090658169
 20
137.3250225765347
 30
0.0
 10
143.7305125570199
 20
137.3136020850012
 30
0.0
 10
143.7615700928195
 20
137.3136020850012
 30
0.0
 10
143.7932994222386
 20
137.3136020850012
 30
0.0
 10
143.8243827962543
 20
137.3255393408575
 30
0.0
 10
143.8482056315348
 20
137.349362176138
 30
0.0
 10
143.8790047851729
 20
137.3801096533439
 30
0.0
 10
143.8829580322422
 20
137.4128725114086
 30
0.0
 10
143.8829580322422
 20
137.4379355810638
 30
0.0
  0
SPLINE
  5
3D6
330
1F
100
AcDbEntity
  8
0
  6
Continuous
 62
     5
370
     0
100
AcDbSpline
210
0.0
220
0.0
230
1.0
 70
     8
 71
     3
 72
    11
 73
     7
 74
     0
 42
0.000000001
 43
0.00000001
 40
0.0
 40
0.0
 40
0.0
 40
0.0
 40
1.0
 40
2.0
 40
3.0
 40
4.0
 40
4.0
 40
4.0
 40
4.0
 10
143.8829580322422
 20
138.6635972018511
 30
0.0
 10
143.8829580322422
 20
138.7014243502792
 30
0.0
 10
143.8659823242386
 20
138.7289678886838
 30
0.0
 10
143.8482314697509
 20
138.7521189303446
 30
0.0
 10
143.8010508870804
 20
138.7992995130151
 30
0.0
 10
143.7255774577373
 20
138.7998679537702
 30
0.0
 10
143.6710846598994
 20
138.7521189303446
 30
0.0
  0
SPLINE
  5
3D7
330
1F
100
AcDbEntity
  8
0
  6
Continuous
 62
     5
370
     0
100
AcDbSpline
210
0.0
220
0.0
230
1.0
 70
     8
 71
     3
 72
    14
 73
    10
 74
     0
 42
0.000000001
 43
0.00000001
 40
0.0
 40
0.0
 40
0.0
 40
0.0
 40
1.0
 40
2.0
 40
3.0
 40
4.0
 40
5.0
 40
6.0
 40
7.0
 40
7.0
 40
7.0
 40
7.0
 10
145.9105345291312
 20
138.6983237643425
 30
0.0
 10
145.8705369705474
 20
138.7497418144598
 30
0.0
 10
145.825397606952
 20
138.7876206393201
 30
0.0
 10
145.7725067785147
 20
138.8140789726469
 30
0.0
 10
145.6551754390258
 20
138.8726283704187
 30
0.0
 10
145.516915144464
 20
138.8708196952889
 30
0.0
 10
145.3922199133754
 20
138.8083945650962
 30
0.0
 10
145.3266425208136
 20
138.7726861503916
 30
0.0
 10
145.2797203203045
 20
138.7327402682401
 30
0.0
 10
145.2496704749344
 20
138.6875750664285
 30
0.0
  0
SPLINE
  5
3D8
330
1F
100
AcDbEntity
  8
0
  6
Continuous
 62
     5
370
     0
100
AcDbSpline
210
0.0
220
0.0
230
1.0
 70
     8
 71
     3
 72
    11
 73
     7
 74
     0
 42
0.000000001
 43
0.00000001
 40
0.0
 40
0.0
 40
0.0
 40
0.0
 40
1.0
 40
2.0
 40
3.0
 40
4.0
 40
4.0
 40
4.0
 40
4.0
 10
144.3779924152565
 20
137.5112127620351
 30
0.0
 10
144.3623861327083
 20
137.4956064794869
 30
0.0
 10
144.3483559813446
 20
137.4778814632153
 30
0.0
 10
144.3483559813446
 20
137.4328712907005
 30
0.0
 10
144.3483559813446
 20
137.3948891129756
 30
0.0
 10
144.3653316893482
 20
137.3673972510033
 30
0.0
 10
144.3801369871961
 20
137.3476568538728
 30
0.0
  0
SPLINE
  5
3D9
330
1F
100
AcDbEntity
  8
0
  6
Continuous
 62
     5
370
     0
100
AcDbSpline
210
0.0
220
0.0
230
1.0
 70
     8
 71
     3
 72
     8
 73
     4
 74
     0
 42
0.000000001
 43
0.00000001
 40
0.0
 40
0.0
 40
0.0
 40
0.0
 40
1.0
 40
1.0
 40
1.0
 40
1.0
 10
144.3846328368043
 20
137.342850945671
 30
0.0
 10
144.4424846027404
 20
137.2921563656054
 30
0.0
 10
144.5173637531123
 20
137.295411980839
 30
0.0
 10
144.5682133624746
 20
137.3527728206685
 30
0.0
  0
SPLINE
  5
3DA
330
1F
100
AcDbEntity
  8
0
  6
Continuous
 62
     5
370
     0
100
AcDbSpline
210
0.0
220
0.0
230
1.0
 70
     8
 71
     3
 72
    17
 73
    13
 74
     0
 42
0.000000001
 43
0.00000001
 40
0.0
 40
0.0
 40
0.0
 40
0.0
 40
1.0
 40
2.0
 40
3.0
 40
4.0
 40
5.0
 40
6.0
 40
7.0
 40
8.0
 40
9.0
 40
10.0
 40
10.0
 40
10.0
 40
10.0
 10
145.4125029130448
 20
138.4767352227312
 30
0.0
 10
145.4264297115439
 20
138.4953387383515
 30
0.0
 10
145.4515961340636
 20
138.520453484439
 30
0.0
 10
145.4791655106843
 20
138.5481520521405
 30
0.0
 10
145.5510991044164
 20
138.6110939466559
 30
0.0
 10
145.6293113846702
 20
138.6116107109787
 30
0.0
 10
145.7023818599124
 20
138.5476352878176
 30
0.0
 10
145.7216571691524
 20
138.531563917379
 30
0.0
 10
145.7365658198648
 20
138.5154925469403
 30
0.0
 10
145.7509835444706
 20
138.4999379408244
 30
0.0
 10
145.7580373774766
 20
138.4923415052793
 30
0.0
 10
145.7647553136728
 20
138.4851068047604
 30
0.0
 10
145.768501855013
 20
138.4817995130945
 30
0.0
  0
SPLINE
  5
3DB
330
1F
100
AcDbEntity
  8
0
  6
Continuous
 62
     5
370
     0
100
AcDbSpline
210
0.0
220
0.0
230
1.0
 70
     8
 71
     3
 72
    14
 73
    10
 74
     0
 42
0.000000001
 43
0.00000001
 40
0.0
 40
0.0
 40
0.0
 40
0.0
 40
1.0
 40
2.0
 40
3.0
 40
4.0
 40
5.0
 40
6.0
 40
7.0
 40
7.0
 40
7.0
 40
7.0
 10
146.6130756259607
 20
137.3523594092102
 30
0.0
 10
146.6363300204862
 20
137.3224387549209
 30
0.0
 10
146.668731143525
 20
137.3047137386492
 30
0.0
 10
146.7042328525004
 20
137.3025433284935
 30
0.0
 10
146.7066616448176
 20
137.3023882991967
 30
0.0
 10
146.7091421135669
 20
137.3022849463321
 30
0.0
 10
146.711570905884
 20
137.3022849463321
 30
0.0
 10
146.7435586174646
 20
137.3022849463321
 30
0.0
 10
146.7739443596445
 20
137.315255730834
 30
0.0
 10
146.7979222242218
 20
137.3392335954114
 30
0.0
  0
SPLINE
  5
3DC
330
1F
100
AcDbEntity
  8
0
  6
Continuous
 62
     5
370
     0
100
AcDbSpline
210
0.0
220
0.0
230
1.0
 70
     8
 71
     3
 72
    14
 73
    10
 74
     0
 42
0.000000001
 43
0.00000001
 40
0.0
 40
0.0
 40
0.0
 40
0.0
 40
1.0
 40
2.0
 40
3.0
 40
4.0
 40
5.0
 40
6.0
 40
7.0
 40
7.0
 40
7.0
 40
7.0
 10
146.8026764559915
 20
137.3453314144203
 30
0.0
 10
146.8205565015599
 20
137.3752003922774
 30
0.0
 10
146.8275328199175
 20
137.4011419612813
 30
0.0
 10
146.8275328199175
 20
137.4379355810638
 30
0.0
 10
146.8275328199175
 20
137.4497178076234
 30
0.0
 10
146.8275328199175
 20
137.4658408544943
 30
0.0
 10
146.8208148837213
 20
137.4783982275381
 30
0.0
 10
146.8133734774732
 20
137.5009808284439
 30
0.0
 10
146.7991107821642
 20
137.5151401708882
 30
0.0
 10
146.7906875237028
 20
137.5230466650269
 30
0.0
  0
SPLINE
  5
3DD
330
1F
100
AcDbEntity
  8
0
  6
Continuous
 62
     5
370
     0
100
AcDbSpline
210
0.0
220
0.0
230
1.0
 70
     8
 71
     3
 72
    11
 73
     7
 74
     0
 42
0.000000001
 43
0.00000001
 40
0.0
 40
0.0
 40
0.0
 40
0.0
 40
1.0
 40
2.0
 40
3.0
 40
4.0
 40
4.0
 40
4.0
 40
4.0
 10
149.9639305242115
 20
138.5405556165954
 30
0.0
 10
149.9062596257885
 20
138.6154347669674
 30
0.0
 10
149.8413540268464
 20
138.6714520195575
 30
0.0
 10
149.7663198471776
 20
138.7114495781413
 30
0.0
 10
149.6895803452437
 20
138.7553745455782
 30
0.0
 10
149.607879905811
 20
138.776665235677
 30
0.0
 10
149.5166193264068
 20
138.776665235677
 30
0.0
  0
SPLINE
  5
3DE
330
1F
100
AcDbEntity
  8
0
  6
Continuous
 62
     5
370
     0
100
AcDbSpline
210
0.0
220
0.0
230
1.0
 70
     8
 71
     3
 72
    17
 73
    13
 74
     0
 42
0.000000001
 43
0.00000001
 40
0.0
 40
0.0
 40
0.0
 40
0.0
 40
1.0
 40
2.0
 40
3.0
 40
4.0
 40
5.0
 40
6.0
 40
7.0
 40
8.0
 40
9.0
 40
10.0
 40
10.0
 40
10.0
 40
10.0
 10
147.416230736437
 20
138.776665235677
 30
0.0
 10
147.378403588009
 20
138.776665235677
 30
0.0
 10
147.3508600496044
 20
138.7597153658896
 30
0.0
 10
147.3277090079436
 20
138.741990349618
 30
0.0
 10
147.2970648836022
 20
138.7114495781413
 30
0.0
 10
147.2929824454522
 20
138.6800819837481
 30
0.0
 10
147.2929824454522
 20
138.6534169446922
 30
0.0
 10
147.2929824454522
 20
138.6154864433996
 30
0.0
 10
147.3099323152396
 20
138.5879945814274
 30
0.0
 10
147.3277090079436
 20
138.5648952161987
 30
0.0
 10
147.3583531322848
 20
138.5342510918574
 30
0.0
 10
147.3896173738135
 20
138.5301169772751
 30
0.0
 10
147.416230736437
 20
138.5301169772751
 30
0.0
  0
SPLINE
  5
3DF
330
1F
100
AcDbEntity
  8
0
  6
Continuous
 62
     5
370
     0
100
AcDbSpline
210
0.0
220
0.0
230
1.0
 70
     8
 71
     3
 72
    29
 73
    25
 74
     0
 42
0.000000001
 43
0.00000001
 40
0.0
 40
0.0
 40
0.0
 40
0.0
 40
1.0
 40
2.0
 40
3.0
 40
4.0
 40
5.0
 40
6.0
 40
7.0
 40
8.0
 40
9.0
 40
10.0
 40
11.0
 40
12.0
 40
13.0
 40
14.0
 40
15.0
 40
16.0
 40
17.0
 40
18.0
 40
19.0
 40
20.0
 40
21.0
 40
22.0
 40
22.0
 40
22.0
 40
22.0
 10
149.4454092027266
 20
138.5301169772751
 30
0.0
 10
149.5332074611682
 20
138.5301169772751
 30
0.0
 10
149.6102570216958
 20
138.5125469903004
 30
0.0
 10
149.673508974805
 20
138.4784922214287
 30
0.0
 10
149.7282859930205
 20
138.4465561862804
 30
0.0
 10
149.7767068100657
 20
138.4045949232701
 30
0.0
 10
149.8161359278943
 20
138.3555023126053
 30
0.0
 10
149.8475551987198
 20
138.3105954929551
 30
0.0
 10
149.8722565333491
 20
138.254423211068
 30
0.0
 10
149.8871910222776
 20
138.1948919610829
 30
0.0
 10
149.8969578679784
 20
138.1413551772421
 30
0.0
 10
149.9070347722727
 20
138.0860097182716
 30
0.0
 10
149.9070347722727
 20
138.0431182794802
 30
0.0
 10
149.9070347722727
 20
137.9894264663426
 30
0.0
 10
149.9008852768315
 20
137.9419875015107
 30
0.0
 10
149.8876044337359
 20
137.8931532730073
 30
0.0
 10
149.8744786199371
 20
137.8407016942443
 30
0.0
 10
149.855926780749
 20
137.7806020035042
 30
0.0
 10
149.8161359278943
 20
137.7307342463552
 30
0.0
 10
149.7816160711322
 20
137.6814866063935
 30
0.0
 10
149.7339704005712
 20
137.6403004898674
 30
0.0
 10
149.6744908270183
 20
137.6083127782868
 30
0.0
 10
149.6102053452635
 20
137.5736895686601
 30
0.0
 10
149.533155784736
 20
137.5561195816853
 30
0.0
 10
149.4454092027266
 20
137.5561195816853
 30
0.0
  0
SPLINE
  5
3E0
330
1F
100
AcDbEntity
  8
0
  6
Continuous
 62
     5
370
     0
100
AcDbSpline
210
0.0
220
0.0
230
1.0
 70
     8
 71
     3
 72
    17
 73
    13
 74
     0
 42
0.000000001
 43
0.00000001
 40
0.0
 40
0.0
 40
0.0
 40
0.0
 40
1.0
 40
2.0
 40
3.0
 40
4.0
 40
5.0
 40
6.0
 40
7.0
 40
8.0
 40
9.0
 40
10.0
 40
10.0
 40
10.0
 40
10.0
 10
147.5395307038542
 20
138.0482342462758
 30
0.0
 10
147.5395307038542
 20
138.0860613947039
 30
0.0
 10
147.5225808340667
 20
138.1136049331084
 30
0.0
 10
147.5048041413628
 20
138.1367559747693
 30
0.0
 10
147.4742116934538
 20
138.1674000991106
 30
0.0
 10
147.4428957754929
 20
138.1714825372606
 30
0.0
 10
147.416230736437
 20
138.1714825372606
 30
0.0
 10
147.378403588009
 20
138.1714825372606
 30
0.0
 10
147.3508600496044
 20
138.1545326674732
 30
0.0
 10
147.3277090079436
 20
138.1367559747693
 30
0.0
 10
147.2970648836022
 20
138.1061635268603
 30
0.0
 10
147.2929824454522
 20
138.0748476088993
 30
0.0
 10
147.2929824454522
 20
138.0482342462758
 30
0.0
  0
SPLINE
  5
3E1
330
1F
100
AcDbEntity
  8
0
  6
Continuous
 62
     5
370
     0
100
AcDbSpline
210
0.0
220
0.0
230
1.0
 70
     8
 71
     3
 72
    11
 73
     7
 74
     0
 42
0.000000001
 43
0.00000001
 40
0.0
 40
0.0
 40
0.0
 40
0.0
 40
1.0
 40
2.0
 40
3.0
 40
4.0
 40
4.0
 40
4.0
 40
4.0
 10
147.2929824454522
 20
137.4328712907005
 30
0.0
 10
147.2929824454522
 20
137.3949924658402
 30
0.0
 10
147.3099323152396
 20
137.3674489274356
 30
0.0
 10
147.3277090079436
 20
137.3442978857747
 30
0.0
 10
147.3542190177025
 20
137.3177361995834
 30
0.0
 10
147.3880154044129
 20
137.314687290079
 30
0.0
 10
147.4111664460737
 20
137.314687290079
 30
0.0
  0
SPLINE
  5
3E2
330
1F
100
AcDbEntity
  8
0
  6
Continuous
 62
     5
370
     0
100
AcDbSpline
210
0.0
220
0.0
230
1.0
 70
     8
 71
     3
 72
    23
 73
    19
 74
     0
 42
0.000000001
 43
0.00000001
 40
0.0
 40
0.0
 40
0.0
 40
0.0
 40
1.0
 40
2.0
 40
3.0
 40
4.0
 40
5.0
 40
6.0
 40
7.0
 40
8.0
 40
9.0
 40
10.0
 40
11.0
 40
12.0
 40
13.0
 40
14.0
 40
15.0
 40
16.0
 40
16.0
 40
16.0
 40
16.0
 10
149.5541880926734
 20
137.3147389665112
 30
0.0
 10
149.6428131740314
 20
137.3202683447651
 30
0.0
 10
149.7191392645072
 20
137.3433677099937
 30
0.0
 10
149.789005800948
 20
137.3864141780819
 30
0.0
 10
149.8723082097814
 20
137.4441367529373
 30
0.0
 10
149.9281187566424
 20
137.4967950374293
 30
0.0
 10
149.9689948145749
 20
137.5559128759562
 30
0.0
 10
150.0188625717239
 20
137.620766798466
 30
0.0
 10
150.0571548080424
 20
137.6971962418063
 30
0.0
 10
150.085990257254
 20
137.7895420262884
 30
0.0
 10
150.1131720606326
 20
137.8764617853813
 30
0.0
 10
150.1281065495611
 20
137.9665338068431
 30
0.0
 10
150.1281065495611
 20
138.0431182794802
 30
0.0
 10
150.1281065495611
 20
138.1241986017256
 30
0.0
 10
150.1135854720908
 20
138.2136505060001
 30
0.0
 10
150.085990257254
 20
138.3017588230354
 30
0.0
 10
150.0610305404633
 20
138.3818056166351
 30
0.0
 10
150.0201544825309
 20
138.4618007338026
 30
0.0
 10
149.9639305242115
 20
138.5405556165954
 30
0.0
  0
SPLINE
  5
3E3
330
1F
100
AcDbEntity
  8
0
  6
Continuous
 62
     5
370
     0
100
AcDbSpline
210
0.0
220
0.0
230
1.0
 70
     8
 71
     3
 72
    14
 73
    10
 74
     0
 42
0.000000001
 43
0.00000001
 40
0.0
 40
0.0
 40
0.0
 40
0.0
 40
1.0
 40
2.0
 40
3.0
 40
4.0
 40
5.0
 40
6.0
 40
7.0
 40
7.0
 40
7.0
 40
7.0
 10
152.0641640848844
 20
138.6932594739791
 30
0.0
 10
152.024218202733
 20
138.7446258476642
 30
0.0
 10
151.9791046773536
 20
138.7825046725245
 30
0.0
 10
151.9261880107001
 20
138.808911329419
 30
0.0
 10
151.8088825094274
 20
138.8676674329199
 30
0.0
 10
151.6705963766495
 20
138.8658070813579
 30
0.0
 10
151.5459011455609
 20
138.8033302747329
 30
0.0
 10
151.4802720765669
 20
138.767570183596
 30
0.0
 10
151.4333498760578
 20
138.7275726250122
 30
0.0
 10
151.4033258689038
 20
138.6825107760652
 30
0.0
  0
SPLINE
  5
3E4
330
1F
100
AcDbEntity
  8
0
  6
Continuous
 62
     5
370
     0
100
AcDbSpline
210
0.0
220
0.0
230
1.0
 70
     8
 71
     3
 72
    11
 73
     7
 74
     0
 42
0.000000001
 43
0.00000001
 40
0.0
 40
0.0
 40
0.0
 40
0.0
 40
1.0
 40
2.0
 40
3.0
 40
4.0
 40
4.0
 40
4.0
 40
4.0
 10
150.5316994856582
 20
137.5061484716718
 30
0.0
 10
150.5160415266778
 20
137.4905421891236
 30
0.0
 10
150.5020372135302
 20
137.4727654964197
 30
0.0
 10
150.5020372135302
 20
137.4277553239049
 30
0.0
 10
150.5020372135302
 20
137.3898248226123
 30
0.0
 10
150.5189870833176
 20
137.36233296064
 30
0.0
 10
150.5338182193816
 20
137.3425925635095
 30
0.0
  0
SPLINE
  5
3E5
330
1F
100
AcDbEntity
  8
0
  6
Continuous
 62
     5
370
     0
100
AcDbSpline
210
0.0
220
0.0
230
1.0
 70
     8
 71
     3
 72
     8
 73
     4
 74
     0
 42
0.000000001
 43
0.00000001
 40
0.0
 40
0.0
 40
0.0
 40
0.0
 40
1.0
 40
1.0
 40
1.0
 40
1.0
 10
150.538520774719
 20
137.3375799495785
 30
0.0
 10
150.5903522362946
 20
137.2929831885219
 30
0.0
 10
150.6663165917443
 20
137.3009413590929
 30
0.0
 10
150.7151508202477
 20
137.3558217301729
 30
0.0
  0
SPLINE
  5
3E6
330
1F
100
AcDbEntity
  8
0
  6
Continuous
 62
     5
370
     0
100
AcDbSpline
210
0.0
220
0.0
230
1.0
 70
     8
 71
     3
 72
    17
 73
    13
 74
     0
 42
0.000000001
 43
0.00000001
 40
0.0
 40
0.0
 40
0.0
 40
0.0
 40
1.0
 40
2.0
 40
3.0
 40
4.0
 40
5.0
 40
6.0
 40
7.0
 40
8.0
 40
9.0
 40
10.0
 40
10.0
 40
10.0
 40
10.0
 10
151.560989910423
 20
138.4817478366622
 30
0.0
 10
151.574839947637
 20
138.5001446465535
 30
0.0
 10
151.5996963115631
 20
138.5250526869118
 30
0.0
 10
151.6277049378581
 20
138.5532163425037
 30
0.0
 10
151.6996385315902
 20
138.6161582370192
 30
0.0
 10
151.7779283264925
 20
138.6166233249098
 30
0.0
 10
151.8509988017346
 20
138.5527512546132
 30
0.0
 10
151.8702224345423
 20
138.5366798841746
 30
0.0
 10
151.8851569234709
 20
138.5206085137358
 30
0.0
 10
151.8995746480766
 20
138.50505390762
 30
0.0
 10
151.9066026428665
 20
138.497457472075
 30
0.0
 10
151.913372255495
 20
138.4902227715559
 30
0.0
 10
151.9170929586191
 20
138.4869154798901
 30
0.0
  0
SPLINE
  5
3E7
330
1F
100
AcDbEntity
  8
0
  6
Continuous
 62
     5
370
     0
100
AcDbSpline
210
0.0
220
0.0
230
1.0
 70
     8
 71
     3
 72
    23
 73
    19
 74
     0
 42
0.000000001
 43
0.00000001
 40
0.0
 40
0.0
 40
0.0
 40
0.0
 40
1.0
 40
2.0
 40
3.0
 40
4.0
 40
5.0
 40
6.0
 40
7.0
 40
8.0
 40
9.0
 40
10.0
 40
11.0
 40
12.0
 40
13.0
 40
14.0
 40
15.0
 40
16.0
 40
16.0
 40
16.0
 40
16.0
 10
152.7616408913507
 20
137.3574236995735
 30
0.0
 10
152.7848952858761
 20
137.3275030452841
 30
0.0
 10
152.8172447324826
 20
137.3098297054448
 30
0.0
 10
152.8527464414581
 20
137.3076076188568
 30
0.0
 10
152.8551752337752
 20
137.30745258956
 30
0.0
 10
152.8576557025246
 20
137.3074009131277
 30
0.0
 10
152.860136171274
 20
137.3074009131277
 30
0.0
 10
152.8920722064223
 20
137.3074009131277
 30
0.0
 10
152.9225096250344
 20
137.3203200211974
 30
0.0
 10
152.9464358131795
 20
137.3442978857747
 30
0.0
 10
152.9770799375208
 20
137.3748903336837
 30
0.0
 10
152.9811623756708
 20
137.4062062516446
 30
0.0
 10
152.9811623756708
 20
137.4328712907005
 30
0.0
 10
152.9811623756708
 20
137.4446018408278
 30
0.0
 10
152.9811623756708
 20
137.4606215348342
 30
0.0
 10
152.9744961159068
 20
137.4733856136071
 30
0.0
 10
152.9670547096587
 20
137.4957615087837
 30
0.0
 10
152.9528436907821
 20
137.5099725276604
 30
0.0
 10
152.9443687558883
 20
137.5179823746636
 30
0.0
  0
SPLINE
  5
3E8
330
1F
100
AcDbEntity
  8
0
  6
Continuous
 62
     5
370
     0
100
AcDbSpline
210
0.0
220
0.0
230
1.0
 70
     8
 71
     3
 72
    14
 73
    10
 74
     0
 42
0.000000001
 43
0.00000001
 40
0.0
 40
0.0
 40
0.0
 40
0.0
 40
1.0
 40
2.0
 40
3.0
 40
4.0
 40
5.0
 40
6.0
 40
7.0
 40
7.0
 40
7.0
 40
7.0
 10
156.2592051808409
 20
137.9074159683162
 30
0.0
 10
156.2393097544136
 20
137.9571286961684
 30
0.0
 10
156.2087689829368
 20
138.0021905451154
 30
0.0
 10
156.1656708384164
 20
138.0452886896359
 30
0.0
 10
156.1225726938959
 20
138.0882834812919
 30
0.0
 10
156.0775108449488
 20
138.1188759292009
 30
0.0
 10
156.0279014699612
 20
138.1387713556282
 30
0.0
 10
155.9727110402875
 20
138.160785515779
 30
0.0
 10
155.9172622284524
 20
138.1714825372606
 30
0.0
 10
155.8584544485192
 20
138.1714825372606
 30
0.0
  0
SPLINE
  5
3E9
330
1F
100
AcDbEntity
  8
0
  6
Continuous
 62
     5
370
     0
100
AcDbSpline
210
0.0
220
0.0
230
1.0
 70
     8
 71
     3
 72
    17
 73
    13
 74
     0
 42
0.000000001
 43
0.00000001
 40
0.0
 40
0.0
 40
0.0
 40
0.0
 40
1.0
 40
2.0
 40
3.0
 40
4.0
 40
5.0
 40
6.0
 40
7.0
 40
8.0
 40
9.0
 40
10.0
 40
10.0
 40
10.0
 40
10.0
 10
153.8648810440697
 20
138.1714825372606
 30
0.0
 10
153.8150649633529
 20
138.1714825372606
 30
0.0
 10
153.7676776749533
 20
138.1903444350424
 30
0.0
 10
153.7334162003525
 20
138.2245025567786
 30
0.0
 10
153.6976561092156
 20
138.25628356263
 30
0.0
 10
153.6779157120852
 20
138.3020688816291
 30
0.0
 10
153.6779157120852
 20
138.3533319024496
 30
0.0
 10
153.6779157120852
 20
138.4039231296505
 30
0.0
 10
153.6981211971062
 20
138.4519305352374
 30
0.0
 10
153.734811464024
 20
138.488569125723
 30
0.0
 10
153.7676259985211
 20
138.5214353366523
 30
0.0
 10
153.8150132869207
 20
138.540297234434
 30
0.0
 10
153.8648810440697
 20
138.540297234434
 30
0.0
  0
SPLINE
  5
3EA
330
1F
100
AcDbEntity
  8
0
  6
Continuous
 62
     5
370
     0
100
AcDbSpline
210
0.0
220
0.0
230
1.0
 70
     8
 71
     3
 72
    17
 73
    13
 74
     0
 42
0.000000001
 43
0.00000001
 40
0.0
 40
0.0
 40
0.0
 40
0.0
 40
1.0
 40
2.0
 40
3.0
 40
4.0
 40
5.0
 40
6.0
 40
7.0
 40
8.0
 40
9.0
 40
10.0
 40
10.0
 40
10.0
 40
10.0
 10
156.0619045624007
 20
138.540297234434
 30
0.0
 10
156.0997317108287
 20
138.540297234434
 30
0.0
 10
156.1272752492332
 20
138.5572471042215
 30
0.0
 10
156.1504262908941
 20
138.5750237969254
 30
0.0
 10
156.1810704152354
 20
138.6056162448344
 30
0.0
 10
156.1851528533854
 20
138.6369321627953
 30
0.0
 10
156.1851528533854
 20
138.6635972018511
 30
0.0
 10
156.1851528533854
 20
138.7014243502792
 30
0.0
 10
156.168202983598
 20
138.7289678886838
 30
0.0
 10
156.1504262908941
 20
138.7521189303446
 30
0.0
 10
156.1198338429851
 20
138.7827630546859
 30
0.0
 10
156.0885179250242
 20
138.786845492836
 30
0.0
 10
156.0619045624007
 20
138.786845492836
 30
0.0
  0
SPLINE
  5
3EB
330
1F
100
AcDbEntity
  8
0
  6
Continuous
 62
     5
370
     0
100
AcDbSpline
210
0.0
220
0.0
230
1.0
 70
     8
 71
     3
 72
    29
 73
    25
 74
     0
 42
0.000000001
 43
0.00000001
 40
0.0
 40
0.0
 40
0.0
 40
0.0
 40
1.0
 40
2.0
 40
3.0
 40
4.0
 40
5.0
 40
6.0
 40
7.0
 40
8.0
 40
9.0
 40
10.0
 40
11.0
 40
12.0
 40
13.0
 40
14.0
 40
15.0
 40
16.0
 40
17.0
 40
18.0
 40
19.0
 40
20.0
 40
21.0
 40
22.0
 40
22.0
 40
22.0
 40
22.0
 10
153.8750613012286
 20
138.786845492836
 30
0.0
 10
153.8149616104884
 20
138.786845492836
 30
0.0
 10
153.7592544164919
 20
138.7756833834638
 30
0.0
 10
153.7095416886398
 20
138.7536175468807
 30
0.0
 10
153.658795432142
 20
138.7310349459749
 30
0.0
 10
153.6102712622323
 20
138.6980137057488
 30
0.0
 10
153.5729092016948
 20
138.660599968779
 30
0.0
 10
153.5299144100388
 20
138.6176568535553
 30
0.0
 10
153.4993219621298
 20
138.572543328176
 30
0.0
 10
153.479891623593
 20
138.5239158054017
 30
0.0
 10
153.4577741105777
 20
138.4743064304141
 30
0.0
 10
153.4466120012055
 20
138.4186509128498
 30
0.0
 10
153.4466120012055
 20
138.3584478692451
 30
0.0
 10
153.4466120012055
 20
138.2982965020727
 30
0.0
 10
153.4577741105777
 20
138.2425893080762
 30
0.0
 10
153.479891623593
 20
138.1929282566563
 30
0.0
 10
153.5024742244988
 20
138.1421820001586
 30
0.0
 10
153.535495464725
 20
138.0936578302488
 30
0.0
 10
153.5729092016948
 20
138.0562957697113
 30
0.0
 10
153.6159039933507
 20
138.0132493016231
 30
0.0
 10
153.6609658422977
 20
137.9827085301464
 30
0.0
 10
153.7095416886398
 20
137.9632781916095
 30
0.0
 10
153.7591510636273
 20
137.9412123550266
 30
0.0
 10
153.8148065811916
 20
137.9300502456543
 30
0.0
 10
153.8750613012286
 20
137.9300502456543
 30
0.0
  0
SPLINE
  5
3EC
330
1F
100
AcDbEntity
  8
0
  6
Continuous
 62
     5
370
     0
100
AcDbSpline
210
0.0
220
0.0
230
1.0
 70
     8
 71
     3
 72
    17
 73
    13
 74
     0
 42
0.000000001
 43
0.00000001
 40
0.0
 40
0.0
 40
0.0
 40
0.0
 40
1.0
 40
2.0
 40
3.0
 40
4.0
 40
5.0
 40
6.0
 40
7.0
 40
8.0
 40
9.0
 40
10.0
 40
10.0
 40
10.0
 40
10.0
 10
155.878814962837
 20
137.9300502456543
 30
0.0
 10
155.9286310435537
 20
137.9300502456543
 30
0.0
 10
155.9760183319533
 20
137.9111883478726
 30
0.0
 10
156.0088845428826
 20
137.8783221369433
 30
0.0
 10
156.0444896047227
 20
137.842665398671
 30
0.0
 10
156.0657802948215
 20
137.7939861994644
 30
0.0
 10
156.0657802948215
 20
137.7481492040331
 30
0.0
 10
156.0657802948215
 20
137.6968861832126
 30
0.0
 10
156.0460398976911
 20
137.6511008642136
 30
0.0
 10
156.0089362193149
 20
137.6180279475552
 30
0.0
 10
155.9745713918495
 20
137.5837147965221
 30
0.0
 10
155.9325067759746
 20
137.5662998388442
 30
0.0
 10
155.8838792532003
 20
137.5662998388442
 30
0.0
  0
SPLINE
  5
3ED
330
1F
100
AcDbEntity
  8
0
  6
Continuous
 62
     5
370
     0
100
AcDbSpline
210
0.0
220
0.0
230
1.0
 70
     8
 71
     3
 72
    17
 73
    13
 74
     0
 42
0.000000001
 43
0.00000001
 40
0.0
 40
0.0
 40
0.0
 40
0.0
 40
1.0
 40
2.0
 40
3.0
 40
4.0
 40
5.0
 40
6.0
 40
7.0
 40
8.0
 40
9.0
 40
10.0
 40
10.0
 40
10.0
 40
10.0
 10
153.6817914445061
 20
137.5662998388442
 30
0.0
 10
153.6438609432135
 20
137.5662998388442
 30
0.0
 10
153.6163690812412
 20
137.5493499690568
 30
0.0
 10
153.5932697160126
 20
137.5315732763529
 30
0.0
 10
153.5626255916713
 20
137.5009808284439
 30
0.0
 10
153.5585431535213
 20
137.469664910483
 30
0.0
 10
153.5585431535213
 20
137.4429998714271
 30
0.0
 10
153.5585431535213
 20
137.4050176937023
 30
0.0
 10
153.5754930233087
 20
137.3775258317299
 30
0.0
 10
153.5932180395803
 20
137.3544781429336
 30
0.0
 10
153.623758811057
 20
137.3238340185923
 30
0.0
 10
153.6551264054502
 20
137.3197515804423
 30
0.0
 10
153.6817914445061
 20
137.3197515804423
 30
0.0
  0
SPLINE
  5
3EE
330
1F
100
AcDbEntity
  8
0
  6
Continuous
 62
     5
370
     0
100
AcDbSpline
210
0.0
220
0.0
230
1.0
 70
     8
 71
     3
 72
    20
 73
    16
 74
     0
 42
0.000000001
 43
0.00000001
 40
0.0
 40
0.0
 40
0.0
 40
0.0
 40
1.0
 40
2.0
 40
3.0
 40
4.0
 40
5.0
 40
6.0
 40
7.0
 40
8.0
 40
9.0
 40
10.0
 40
11.0
 40
12.0
 40
13.0
 40
13.0
 40
13.0
 40
13.0
 10
155.8584544485192
 20
137.314687290079
 30
0.0
 10
155.9202594615246
 20
137.314687290079
 30
0.0
 10
155.9808242401553
 20
137.3264695166386
 30
0.0
 10
156.0279014699612
 20
137.3474501481437
 30
0.0
 10
156.0840737518482
 20
137.369929396185
 30
0.0
 10
156.1278436899883
 20
137.3979896989123
 30
0.0
 10
156.1656708384164
 20
137.4358685237727
 30
0.0
 10
156.2087689829368
 20
137.4789149918608
 30
0.0
 10
156.2393614308458
 20
137.5239768408079
 30
0.0
 10
156.2586884165181
 20
137.5725010107177
 30
0.0
 10
156.2798757537524
 20
137.6200950048464
 30
0.0
 10
156.2919680389056
 20
137.6804014013157
 30
0.0
 10
156.2919680389056
 20
137.7379689468742
 30
0.0
 10
156.2919680389056
 20
137.796880079672
 30
0.0
 10
156.2812710174239
 20
137.8522772150748
 30
0.0
 10
156.2592051808409
 20
137.9074159683162
 30
0.0
  0
HATCH
  5
3EF
330
1F
100
AcDbEntity
  8
0
  6
Continuous
 62
   142
100
AcDbHatch
 10
0.0
 20
0.0
 30
0.0
210
0.0
220
0.0
230
1.0
  2
ANSI31
 70
     0
 71
     0
 91
        1
 92
        0
 93
       16
 72
     4
 94
        3
 73
     1
 74
     0
 95
       41
 96
       37
 40
0.0
 40
0.0
 40
0.0
 40
0.0
 40
1.0
 40
2.0
 40
3.0
 40
4.0
 40
5.0
 40
6.0
 40
7.0
 40
8.0
 40
9.0
 40
10.0
 40
11.0
 40
12.0
 40
13.0
 40
14.0
 40
15.0
 40
16.0
 40
17.0
 40
18.0
 40
19.0
 40
20.0
 40
21.0
 40
22.0
 40
23.0
 40
24.0
 40
25.0
 40
26.0
 40
27.0
 40
28.0
 40
29.0
 40
30.0
 40
31.0
 40
32.0
 40
33.0
 40
34.0
 40
34.0
 40
34.0
 40
34.0
 10
140.0397300872395
 20
138.1520005222915
 42
1.0
 10
140.0609174244738
 20
138.162284132315
 42
1.0
 10
140.0817430266821
 20
138.1724127130416
 42
1.0
 10
140.1019743499193
 20
138.1825412937683
 42
1.0
 10
140.1644769947604
 20
138.2138055352969
 42
1.0
 10
140.2220703785351
 20
138.2504441257826
 42
1.0
 10
140.2777517343154
 20
138.2858941583258
 42
1.0
 10
140.3330713550698
 20
138.3210858087076
 42
1.0
 10
140.3903030038185
 20
138.3574660170318
 42
1.0
 10
140.4472245939736
 20
138.3988588392871
 42
1.0
 10
140.5032676847799
 20
138.4396315443551
 42
1.0
 10
140.5644267423818
 20
138.4855202162186
 42
1.0
 10
140.6255857999837
 20
138.5313572116498
 42
1.0
 10
140.6463338875436
 20
138.5469118177657
 42
1.0
 10
140.6696916349336
 20
138.5644301283082
 42
1.0
 10
140.6835925952166
 20
138.5892864922343
 42
1.0
 10
140.6993280688454
 20
138.6080967135838
 42
1.0
 10
140.6993280688454
 20
138.6311444023801
 42
1.0
 10
140.6993280688454
 20
138.6483009778967
 42
1.0
 10
140.6993280688454
 20
138.686179802757
 42
1.0
 10
140.6823523608419
 20
138.7137233411616
 42
1.0
 10
140.6646015063541
 20
138.7368743828224
 42
1.0
 10
140.6138810880725
 20
138.7876206393201
 42
1.0
 10
140.5553316903007
 20
138.7869488457005
 42
1.0
 10
140.4837598315947
 20
138.7333603854274
 42
1.0
 10
140.3847994637809
 20
138.6641139661739
 42
1.0
 10
140.2824801278689
 20
138.5924904310356
 42
1.0
 10
140.1769826913718
 20
138.5221588067042
 42
1.0
 10
140.0794434254457
 20
138.4571498548976
 42
1.0
 10
139.9709487558765
 20
138.3963266941055
 42
1.0
 10
139.8452458343585
 20
138.3362270033653
 42
1.0
 10
139.723728703855
 20
138.2780910170517
 42
1.0
 10
139.6026508230259
 20
138.2343727553438
 42
1.0
 10
139.4842342784591
 20
138.2059507175906
 42
1.0
 10
139.3665153657281
 20
138.1729811537967
 42
1.0
 10
139.2376343436249
 20
138.1562379897384
 42
1.0
 10
139.1011827241929
 20
138.1562379897384
 42
1.0
 72
     1
 10
139.1011827241929
 20
138.1562379897384
 11
138.2175157322263
 21
138.1562379897384
 72
     1
 10
138.2175157322263
 20
138.1562379897384
 11
138.2175157322263
 21
138.6483009778967
 72
     4
 94
        3
 73
     1
 74
     0
 95
       14
 96
       10
 40
0.0
 40
0.0
 40
0.0
 40
0.0
 40
1.0
 40
2.0
 40
3.0
 40
4.0
 40
5.0
 40
6.0
 40
7.0
 40
7.0
 40
7.0
 40
7.0
 10
138.2175157322263
 20
138.6483009778967
 42
1.0
 10
138.2175157322263
 20
138.686179802757
 42
1.0
 10
138.2005400242227
 20
138.7137233411616
 42
1.0
 10
138.182789169735
 20
138.7368743828224
 42
1.0
 10
138.1321462661018
 20
138.7875172864556
 42
1.0
 10
138.0613753920961
 20
138.7875172864556
 42
1.0
 10
138.0107324884629
 20
138.7368743828224
 42
1.0
 10
137.9801400405539
 20
138.7062819349134
 42
1.0
 10
137.9760059259715
 20
138.6749143405202
 42
1.0
 10
137.9760059259715
 20
138.6483009778967
 42
1.0
 72
     1
 10
137.9760059259715
 20
138.6483009778967
 11
137.9760059259715
 21
137.4226910335416
 72
     4
 94
        3
 73
     1
 74
     0
 95
       17
 96
       13
 40
0.0
 40
0.0
 40
0.0
 40
0.0
 40
1.0
 40
2.0
 40
3.0
 40
4.0
 40
5.0
 40
6.0
 40
7.0
 40
8.0
 40
9.0
 40
10.0
 40
10.0
 40
10.0
 40
10.0
 10
137.9760059259715
 20
137.4226910335416
 42
1.0
 10
137.9760059259715
 20
137.3848122086813
 42
1.0
 10
137.9929816339752
 20
137.3572686702767
 42
1.0
 10
138.0107324884629
 20
137.3341176286158
 42
1.0
 10
138.0360539402795
 20
137.3087961767992
 42
1.0
 10
138.0663880060271
 20
137.2961354508909
 42
1.0
 10
138.0967479099909
 20
137.2961354508909
 42
1.0
 10
138.1271078139546
 20
137.2961354508909
 42
1.0
 10
138.1574677179184
 20
137.3087961767992
 42
1.0
 10
138.182789169735
 20
137.3341176286158
 42
1.0
 10
138.213381617644
 20
137.3647100765248
 42
1.0
 10
138.2175157322263
 20
137.396077670918
 42
1.0
 10
138.2175157322263
 20
137.4226910335416
 42
1.0
 72
     1
 10
138.2175157322263
 20
137.4226910335416
 11
138.2175157322263
 21
137.9147540216998
 72
     1
 10
138.2175157322263
 20
137.9147540216998
 11
139.1035340018616
 21
137.9148056981321
 72
     4
 94
        3
 73
     1
 74
     0
 95
        8
 96
        4
 40
0.0
 40
0.0
 40
0.0
 40
0.0
 40
1.0
 40
1.0
 40
1.0
 40
1.0
 10
139.1035340018616
 20
137.9148056981321
 42
1.0
 10
139.2332160086651
 20
137.9243658381037
 42
1.0
 10
139.3611410167711
 20
137.911084995008
 42
1.0
 10
139.4838983816493
 20
137.8753249038711
 42
1.0
 72
     1
 10
139.4838983816493
 20
137.8753249038711
 11
139.4850869395917
 21
137.8750148452775
 72
     4
 94
        3
 73
     1
 74
     0
 95
       23
 96
       19
 40
0.0
 40
0.0
 40
0.0
 40
0.0
 40
1.0
 40
2.0
 40
3.0
 40
4.0
 40
5.0
 40
6.0
 40
7.0
 40
8.0
 40
9.0
 40
10.0
 40
11.0
 40
12.0
 40
13.0
 40
14.0
 40
15.0
 40
16.0
 40
16.0
 40
16.0
 40
16.0
 10
139.4850869395917
 20
137.8750148452775
 42
1.0
 10
139.6059581146917
 20
137.8448358088267
 42
1.0
 10
139.7304983164835
 20
137.7998256363119
 42
1.0
 10
139.8452458343585
 20
137.7449452652318
 42
1.0
 10
139.9605876312046
 20
137.6898065119904
 42
1.0
 10
140.0725187835204
 20
137.6287249690369
 42
1.0
 10
140.177008529588
 20
137.5640777522562
 42
1.0
 10
140.2840045826211
 20
137.4927642757116
 42
1.0
 10
140.3869957121527
 20
137.4206239762504
 42
1.0
 10
140.4843024341336
 20
137.3526694678038
 42
1.0
 10
140.5521277514994
 20
137.2952052751099
 42
1.0
 10
140.6127700447785
 20
137.2924664241991
 42
1.0
 10
140.6646015063541
 20
137.3442978857747
 42
1.0
 10
140.6951939542631
 20
137.3748903336837
 42
1.0
 10
140.6993280688454
 20
137.4062579280769
 42
1.0
 10
140.6993280688454
 20
137.4328712907005
 42
1.0
 10
140.6993280688454
 20
137.4579860367879
 42
1.0
 10
140.6898712817384
 20
137.4795867854805
 42
1.0
 10
140.6857888435884
 20
137.4877516617805
 42
1.0
 72
     1
 10
140.6857888435884
 20
137.4877516617805
 11
140.6827916105162
 21
137.4926092464147
 72
     4
 94
        3
 73
     1
 74
     0
 95
       26
 96
       22
 40
0.0
 40
0.0
 40
0.0
 40
0.0
 40
1.0
 40
2.0
 40
3.0
 40
4.0
 40
5.0
 40
6.0
 40
7.0
 40
8.0
 40
9.0
 40
10.0
 40
11.0
 40
12.0
 40
13.0
 40
14.0
 40
15.0
 40
16.0
 40
17.0
 40
18.0
 40
19.0
 40
19.0
 40
19.0
 40
19.0
 10
140.6827916105162
 20
137.4926092464147
 42
1.0
 10
140.6657900642965
 20
137.5152435237528
 42
1.0
 10
140.6481425626733
 20
137.5328651871598
 42
1.0
 10
140.6258958585773
 20
137.5495566747859
 42
1.0
 10
140.6042692716687
 20
137.5661964859797
 42
1.0
 10
140.5837278898379
 20
137.5817510920956
 42
1.0
 10
140.563909978059
 20
137.5967372574564
 42
1.0
 10
140.5234473315847
 20
137.6273813817977
 42
1.0
 10
140.4860335946149
 20
137.6556483902542
 42
1.0
 10
140.4463719328409
 20
137.6879978368607
 42
1.0
 10
140.3908197681413
 20
137.7283571304704
 42
1.0
 10
140.3333814136635
 20
137.7701116877516
 42
1.0
 10
140.2777517343154
 20
137.8003424006347
 42
1.0
 10
140.2240599211778
 20
137.8345521988032
 42
1.0
 10
140.1636243336278
 20
137.870105584211
 42
1.0
 10
140.1019743499193
 20
137.9037469416244
 42
1.0
 10
140.0821564381403
 20
137.9136171401897
 42
1.0
 10
140.0623126881453
 20
137.9241074559422
 42
1.0
 10
140.0421330413404
 20
137.9347528009917
 42
1.0
 10
139.9998100433042
 20
137.9570253433039
 42
1.0
 10
139.956040105164
 20
137.9801247085324
 42
1.0
 10
139.9079810231448
 20
138.0006919285794
 42
1.0
 72
     1
 10
139.9079810231448
 20
138.0006919285794
 11
139.8170305023342
 21
138.0431182794802
 72
     1
 10
139.8170305023342
 20
138.0431182794802
 11
139.9096088307616
 21
138.0863714532975
 72
     4
 94
        3
 73
     1
 74
     0
 95
        8
 96
        4
 40
0.0
 40
0.0
 40
0.0
 40
0.0
 40
1.0
 40
1.0
 40
1.0
 40
1.0
 10
139.9096088307616
 20
138.0863714532975
 42
1.0
 10
139.9534821217663
 20
138.1099875828489
 42
1.0
 10
139.997381250987
 20
138.1313816258123
 42
1.0
 10
140.0397300872395
 20
138.1520005222915
 42
1.0
 97
        0
 75
     0
 76
     1
 52
0.0
 41
0.0393700787
 77
     0
 78
     1
 53
45.0
 43
0.0
 44
0.0
 45
-0.0883883476483184
 46
0.0883883476483184
 79
     0
 98
        1
 10
0.0
 20
0.0
  0
HATCH
  5
3F0
330
1F
100
AcDbEntity
  8
0
  6
Continuous
 62
   142
100
AcDbHatch
 10
0.0
 20
0.0
 30
0.0
210
0.0
220
0.0
230
1.0
  2
ANSI31
 70
     0
 71
     0
 91
        1
 92
        0
 93
       15
 72
     4
 94
        3
 73
     1
 74
     0
 95
        8
 96
        4
 40
0.0
 40
0.0
 40
0.0
 40
0.0
 40
1.0
 40
1.0
 40
1.0
 40
1.0
 10
143.6710846598994
 20
138.7521189303446
 42
1.0
 10
143.6404922119904
 20
138.7215264824356
 42
1.0
 10
143.636358097408
 20
138.6902105644747
 42
1.0
 10
143.636358097408
 20
138.6635972018511
 42
1.0
 72
     1
 10
143.636358097408
 20
138.6635972018511
 11
143.636358097408
 21
138.1714825372606
 72
     1
 10
143.636358097408
 20
138.1714825372606
 11
141.4062358242026
 21
138.1714825372606
 72
     1
 10
141.4062358242026
 20
138.1714825372606
 11
141.4062358242026
 21
138.6635972018511
 72
     4
 94
        3
 73
     1
 74
     0
 95
       14
 96
       10
 40
0.0
 40
0.0
 40
0.0
 40
0.0
 40
1.0
 40
2.0
 40
3.0
 40
4.0
 40
5.0
 40
6.0
 40
7.0
 40
7.0
 40
7.0
 40
7.0
 10
141.4062358242026
 20
138.6635972018511
 42
1.0
 10
141.4062358242026
 20
138.7014243502792
 42
1.0
 10
141.389260116199
 20
138.7289678886838
 42
1.0
 10
141.3715092617113
 20
138.7521189303446
 42
1.0
 10
141.3243286790407
 20
138.7992995130151
 42
1.0
 10
141.2488547568408
 20
138.7998679537702
 42
1.0
 10
141.1943624518597
 20
138.7521189303446
 42
1.0
 10
141.1637700039507
 20
138.7215264824356
 42
1.0
 10
141.1596358893684
 20
138.6902105644747
 42
1.0
 10
141.1596358893684
 20
138.6635972018511
 42
1.0
 72
     1
 10
141.1596358893684
 20
138.6635972018511
 11
141.1596358893684
 21
137.4379355810638
 72
     4
 94
        3
 73
     1
 74
     0
 95
       14
 96
       10
 40
0.0
 40
0.0
 40
0.0
 40
0.0
 40
1.0
 40
2.0
 40
3.0
 40
4.0
 40
5.0
 40
6.0
 40
7.0
 40
7.0
 40
7.0
 40
7.0
 10
141.1596358893684
 20
137.4379355810638
 42
1.0
 10
141.1596358893684
 20
137.4000050797712
 42
1.0
 10
141.1766374355881
 20
137.3725132177989
 42
1.0
 10
141.1943624518597
 20
137.3494138525703
 42
1.0
 10
141.2415430345302
 20
137.3022332698998
 42
1.0
 10
141.3170423020894
 20
137.3016648291448
 42
1.0
 10
141.3714834234951
 20
137.349362176138
 42
1.0
 10
141.4022825771332
 20
137.3801096533439
 42
1.0
 10
141.4062358242026
 20
137.4128725114086
 42
1.0
 10
141.4062358242026
 20
137.4379355810638
 42
1.0
 72
     1
 10
141.4062358242026
 20
137.4379355810638
 11
141.4062358242026
 21
137.9300502456543
 72
     1
 10
141.4062358242026
 20
137.9300502456543
 11
143.636358097408
 21
137.9300502456543
 72
     1
 10
143.636358097408
 20
137.9300502456543
 11
143.636358097408
 21
137.4379355810638
 72
     4
 94
        3
 73
     1
 74
     0
 95
        8
 96
        4
 40
0.0
 40
0.0
 40
0.0
 40
0.0
 40
1.0
 40
1.0
 40
1.0
 40
1.0
 10
143.636358097408
 20
137.4379355810638
 42
1.0
 10
143.636358097408
 20
137.4000050797712
 42
1.0
 10
143.6533596436277
 20
137.3725132177989
 42
1.0
 10
143.6681391032595
 20
137.3527728206685
 42
1.0
 72
     1
 10
143.6681391032595
 20
137.3527728206685
 11
143.6726349528678
 21
137.3479669124665
 72
     4
 94
        3
 73
     1
 74
     0
 95
       14
 96
       10
 40
0.0
 40
0.0
 40
0.0
 40
0.0
 40
1.0
 40
2.0
 40
3.0
 40
4.0
 40
5.0
 40
6.0
 40
7.0
 40
7.0
 40
7.0
 40
7.0
 10
143.6726349528678
 20
137.3479669124665
 42
1.0
 10
143.6988090658169
 20
137.3250225765347
 42
1.0
 10
143.7305125570199
 20
137.3136020850012
 42
1.0
 10
143.7615700928195
 20
137.3136020850012
 42
1.0
 10
143.7932994222386
 20
137.3136020850012
 42
1.0
 10
143.8243827962543
 20
137.3255393408575
 42
1.0
 10
143.8482056315348
 20
137.349362176138
 42
1.0
 10
143.8790047851729
 20
137.3801096533439
 42
1.0
 10
143.8829580322422
 20
137.4128725114086
 42
1.0
 10
143.8829580322422
 20
137.4379355810638
 42
1.0
 72
     1
 10
143.8829580322422
 20
137.4379355810638
 11
143.8829580322422
 21
138.6635972018511
 72
     4
 94
        3
 73
     1
 74
     0
 95
       11
 96
        7
 40
0.0
 40
0.0
 40
0.0
 40
0.0
 40
1.0
 40
2.0
 40
3.0
 40
4.0
 40
4.0
 40
4.0
 40
4.0
 10
143.8829580322422
 20
138.6635972018511
 42
1.0
 10
143.8829580322422
 20
138.7014243502792
 42
1.0
 10
143.8659823242386
 20
138.7289678886838
 42
1.0
 10
143.8482314697509
 20
138.7521189303446
 42
1.0
 10
143.8010508870804
 20
138.7992995130151
 42
1.0
 10
143.7255774577373
 20
138.7998679537702
 42
1.0
 10
143.6710846598994
 20
138.7521189303446
 42
1.0
 97
        0
 75
     0
 76
     1
 52
0.0
 41
0.0393700787
 77
     0
 78
     1
 53
45.0
 43
0.0
 44
0.0
 45
-0.0883883476483184
 46
0.0883883476483184
 79
     0
 98
        1
 10
0.0
 20
0.0
  0
HATCH
  5
3F1
330
1F
100
AcDbEntity
  8
0
  6
Continuous
 62
   142
100
AcDbHatch
 10
0.0
 20
0.0
 30
0.0
210
0.0
220
0.0
230
1.0
  2
ANSI31
 70
     0
 71
     0
 91
        1
 92
        0
 93
       12
 72
     4
 94
        3
 73
     1
 74
     0
 95
       14
 96
       10
 40
0.0
 40
0.0
 40
0.0
 40
0.0
 40
1.0
 40
2.0
 40
3.0
 40
4.0
 40
5.0
 40
6.0
 40
7.0
 40
7.0
 40
7.0
 40
7.0
 10
146.8026764559915
 20
137.3453314144203
 42
1.0
 10
146.8205565015599
 20
137.3752003922774
 42
1.0
 10
146.8275328199175
 20
137.4011419612813
 42
1.0
 10
146.8275328199175
 20
137.4379355810638
 42
1.0
 10
146.8275328199175
 20
137.4497178076234
 42
1.0
 10
146.8275328199175
 20
137.4658408544943
 42
1.0
 10
146.8208148837213
 20
137.4783982275381
 42
1.0
 10
146.8133734774732
 20
137.5009808284439
 42
1.0
 10
146.7991107821642
 20
137.5151401708882
 42
1.0
 10
146.7906875237028
 20
137.5230466650269
 42
1.0
 72
     1
 10
146.7906875237028
 20
137.5230466650269
 11
145.9105345291312
 21
138.6983237643425
 72
     4
 94
        3
 73
     1
 74
     0
 95
       14
 96
       10
 40
0.0
 40
0.0
 40
0.0
 40
0.0
 40
1.0
 40
2.0
 40
3.0
 40
4.0
 40
5.0
 40
6.0
 40
7.0
 40
7.0
 40
7.0
 40
7.0
 10
145.9105345291312
 20
138.6983237643425
 42
1.0
 10
145.8705369705474
 20
138.7497418144598
 42
1.0
 10
145.825397606952
 20
138.7876206393201
 42
1.0
 10
145.7725067785147
 20
138.8140789726469
 42
1.0
 10
145.6551754390258
 20
138.8726283704187
 42
1.0
 10
145.516915144464
 20
138.8708196952889
 42
1.0
 10
145.3922199133754
 20
138.8083945650962
 42
1.0
 10
145.3266425208136
 20
138.7726861503916
 42
1.0
 10
145.2797203203045
 20
138.7327402682401
 42
1.0
 10
145.2496704749344
 20
138.6875750664285
 42
1.0
 72
     1
 10
145.2496704749344
 20
138.6875750664285
 11
144.3779924152565
 21
137.5112127620351
 72
     4
 94
        3
 73
     1
 74
     0
 95
       11
 96
        7
 40
0.0
 40
0.0
 40
0.0
 40
0.0
 40
1.0
 40
2.0
 40
3.0
 40
4.0
 40
4.0
 40
4.0
 40
4.0
 10
144.3779924152565
 20
137.5112127620351
 42
1.0
 10
144.3623861327083
 20
137.4956064794869
 42
1.0
 10
144.3483559813446
 20
137.4778814632153
 42
1.0
 10
144.3483559813446
 20
137.4328712907005
 42
1.0
 10
144.3483559813446
 20
137.3948891129756
 42
1.0
 10
144.3653316893482
 20
137.3673972510033
 42
1.0
 10
144.3801369871961
 20
137.3476568538728
 42
1.0
 72
     1
 10
144.3801369871961
 20
137.3476568538728
 11
144.3846328368043
 21
137.342850945671
 72
     4
 94
        3
 73
     1
 74
     0
 95
        8
 96
        4
 40
0.0
 40
0.0
 40
0.0
 40
0.0
 40
1.0
 40
1.0
 40
1.0
 40
1.0
 10
144.3846328368043
 20
137.342850945671
 42
1.0
 10
144.4424846027404
 20
137.2921563656054
 42
1.0
 10
144.5173637531123
 20
137.295411980839
 42
1.0
 10
144.5682133624746
 20
137.3527728206685
 42
1.0
 72
     1
 10
144.5682133624746
 20
137.3527728206685
 11
145.4125029130448
 21
138.4767352227312
 72
     4
 94
        3
 73
     1
 74
     0
 95
       17
 96
       13
 40
0.0
 40
0.0
 40
0.0
 40
0.0
 40
1.0
 40
2.0
 40
3.0
 40
4.0
 40
5.0
 40
6.0
 40
7.0
 40
8.0
 40
9.0
 40
10.0
 40
10.0
 40
10.0
 40
10.0
 10
145.4125029130448
 20
138.4767352227312
 42
1.0
 10
145.4264297115439
 20
138.4953387383515
 42
1.0
 10
145.4515961340636
 20
138.520453484439
 42
1.0
 10
145.4791655106843
 20
138.5481520521405
 42
1.0
 10
145.5510991044164
 20
138.6110939466559
 42
1.0
 10
145.6293113846702
 20
138.6116107109787
 42
1.0
 10
145.7023818599124
 20
138.5476352878176
 42
1.0
 10
145.7216571691524
 20
138.531563917379
 42
1.0
 10
145.7365658198648
 20
138.5154925469403
 42
1.0
 10
145.7509835444706
 20
138.4999379408244
 42
1.0
 10
145.7580373774766
 20
138.4923415052793
 42
1.0
 10
145.7647553136728
 20
138.4851068047604
 42
1.0
 10
145.768501855013
 20
138.4817995130945
 42
1.0
 72
     1
 10
145.768501855013
 20
138.4817995130945
 11
146.6130756259607
 21
137.3523594092102
 72
     4
 94
        3
 73
     1
 74
     0
 95
       14
 96
       10
 40
0.0
 40
0.0
 40
0.0
 40
0.0
 40
1.0
 40
2.0
 40
3.0
 40
4.0
 40
5.0
 40
6.0
 40
7.0
 40
7.0
 40
7.0
 40
7.0
 10
146.6130756259607
 20
137.3523594092102
 42
1.0
 10
146.6363300204862
 20
137.3224387549209
 42
1.0
 10
146.668731143525
 20
137.3047137386492
 42
1.0
 10
146.7042328525004
 20
137.3025433284935
 42
1.0
 10
146.7066616448176
 20
137.3023882991967
 42
1.0
 10
146.7091421135669
 20
137.3022849463321
 42
1.0
 10
146.711570905884
 20
137.3022849463321
 42
1.0
 10
146.7435586174646
 20
137.3022849463321
 42
1.0
 10
146.7739443596445
 20
137.315255730834
 42
1.0
 10
146.7979222242218
 20
137.3392335954114
 42
1.0
 72
     1
 10
146.7979222242218
 20
137.3392335954114
 11
146.8026764559915
 21
137.3453314144203
 97
        0
 75
     0
 76
     1
 52
0.0
 41
0.0393700787
 77
     0
 78
     1
 53
45.0
 43
0.0
 44
0.0
 45
-0.0883883476483184
 46
0.0883883476483184
 79
     0
 98
        1
 10
0.0
 20
0.0
  0
HATCH
  5
3F2
330
1F
100
AcDbEntity
  8
0
  6
Continuous
 62
   142
100
AcDbHatch
 10
0.0
 20
0.0
 30
0.0
210
0.0
220
0.0
230
1.0
  2
ANSI31
 70
     0
 71
     0
 91
        1
 92
        0
 93
       12
 72
     4
 94
        3
 73
     1
 74
     0
 95
       11
 96
        7
 40
0.0
 40
0.0
 40
0.0
 40
0.0
 40
1.0
 40
2.0
 40
3.0
 40
4.0
 40
4.0
 40
4.0
 40
4.0
 10
149.9639305242115
 20
138.5405556165954
 42
1.0
 10
149.9062596257885
 20
138.6154347669674
 42
1.0
 10
149.8413540268464
 20
138.6714520195575
 42
1.0
 10
149.7663198471776
 20
138.7114495781413
 42
1.0
 10
149.6895803452437
 20
138.7553745455782
 42
1.0
 10
149.607879905811
 20
138.776665235677
 42
1.0
 10
149.5166193264068
 20
138.776665235677
 42
1.0
 72
     1
 10
149.5166193264068
 20
138.776665235677
 11
147.416230736437
 21
138.776665235677
 72
     4
 94
        3
 73
     1
 74
     0
 95
       17
 96
       13
 40
0.0
 40
0.0
 40
0.0
 40
0.0
 40
1.0
 40
2.0
 40
3.0
 40
4.0
 40
5.0
 40
6.0
 40
7.0
 40
8.0
 40
9.0
 40
10.0
 40
10.0
 40
10.0
 40
10.0
 10
147.416230736437
 20
138.776665235677
 42
1.0
 10
147.378403588009
 20
138.776665235677
 42
1.0
 10
147.3508600496044
 20
138.7597153658896
 42
1.0
 10
147.3277090079436
 20
138.741990349618
 42
1.0
 10
147.2970648836022
 20
138.7114495781413
 42
1.0
 10
147.2929824454522
 20
138.6800819837481
 42
1.0
 10
147.2929824454522
 20
138.6534169446922
 42
1.0
 10
147.2929824454522
 20
138.6154864433996
 42
1.0
 10
147.3099323152396
 20
138.5879945814274
 42
1.0
 10
147.3277090079436
 20
138.5648952161987
 42
1.0
 10
147.3583531322848
 20
138.5342510918574
 42
1.0
 10
147.3896173738135
 20
138.5301169772751
 42
1.0
 10
147.416230736437
 20
138.5301169772751
 42
1.0
 72
     1
 10
147.416230736437
 20
138.5301169772751
 11
149.4454092027266
 21
138.5301169772751
 72
     4
 94
        3
 73
     1
 74
     0
 95
       29
 96
       25
 40
0.0
 40
0.0
 40
0.0
 40
0.0
 40
1.0
 40
2.0
 40
3.0
 40
4.0
 40
5.0
 40
6.0
 40
7.0
 40
8.0
 40
9.0
 40
10.0
 40
11.0
 40
12.0
 40
13.0
 40
14.0
 40
15.0
 40
16.0
 40
17.0
 40
18.0
 40
19.0
 40
20.0
 40
21.0
 40
22.0
 40
22.0
 40
22.0
 40
22.0
 10
149.4454092027266
 20
138.5301169772751
 42
1.0
 10
149.5332074611682
 20
138.5301169772751
 42
1.0
 10
149.6102570216958
 20
138.5125469903004
 42
1.0
 10
149.673508974805
 20
138.4784922214287
 42
1.0
 10
149.7282859930205
 20
138.4465561862804
 42
1.0
 10
149.7767068100657
 20
138.4045949232701
 42
1.0
 10
149.8161359278943
 20
138.3555023126053
 42
1.0
 10
149.8475551987198
 20
138.3105954929551
 42
1.0
 10
149.8722565333491
 20
138.254423211068
 42
1.0
 10
149.8871910222776
 20
138.1948919610829
 42
1.0
 10
149.8969578679784
 20
138.1413551772421
 42
1.0
 10
149.9070347722727
 20
138.0860097182716
 42
1.0
 10
149.9070347722727
 20
138.0431182794802
 42
1.0
 10
149.9070347722727
 20
137.9894264663426
 42
1.0
 10
149.9008852768315
 20
137.9419875015107
 42
1.0
 10
149.8876044337359
 20
137.8931532730073
 42
1.0
 10
149.8744786199371
 20
137.8407016942443
 42
1.0
 10
149.855926780749
 20
137.7806020035042
 42
1.0
 10
149.8161359278943
 20
137.7307342463552
 42
1.0
 10
149.7816160711322
 20
137.6814866063935
 42
1.0
 10
149.7339704005712
 20
137.6403004898674
 42
1.0
 10
149.6744908270183
 20
137.6083127782868
 42
1.0
 10
149.6102053452635
 20
137.5736895686601
 42
1.0
 10
149.533155784736
 20
137.5561195816853
 42
1.0
 10
149.4454092027266
 20
137.5561195816853
 42
1.0
 72
     1
 10
149.4454092027266
 20
137.5561195816853
 11
147.5395307038542
 21
137.5561195816853
 72
     1
 10
147.5395307038542
 20
137.5561195816853
 11
147.5395307038542
 21
138.0482342462758
 72
     4
 94
        3
 73
     1
 74
     0
 95
       17
 96
       13
 40
0.0
 40
0.0
 40
0.0
 40
0.0
 40
1.0
 40
2.0
 40
3.0
 40
4.0
 40
5.0
 40
6.0
 40
7.0
 40
8.0
 40
9.0
 40
10.0
 40
10.0
 40
10.0
 40
10.0
 10
147.5395307038542
 20
138.0482342462758
 42
1.0
 10
147.5395307038542
 20
138.0860613947039
 42
1.0
 10
147.5225808340667
 20
138.1136049331084
 42
1.0
 10
147.5048041413628
 20
138.1367559747693
 42
1.0
 10
147.4742116934538
 20
138.1674000991106
 42
1.0
 10
147.4428957754929
 20
138.1714825372606
 42
1.0
 10
147.416230736437
 20
138.1714825372606
 42
1.0
 10
147.378403588009
 20
138.1714825372606
 42
1.0
 10
147.3508600496044
 20
138.1545326674732
 42
1.0
 10
147.3277090079436
 20
138.1367559747693
 42
1.0
 10
147.2970648836022
 20
138.1061635268603
 42
1.0
 10
147.2929824454522
 20
138.0748476088993
 42
1.0
 10
147.2929824454522
 20
138.0482342462758
 42
1.0
 72
     1
 10
147.2929824454522
 20
138.0482342462758
 11
147.2929824454522
 21
137.4328712907005
 72
     4
 94
        3
 73
     1
 74
     0
 95
       11
 96
        7
 40
0.0
 40
0.0
 40
0.0
 40
0.0
 40
1.0
 40
2.0
 40
3.0
 40
4.0
 40
4.0
 40
4.0
 40
4.0
 10
147.2929824454522
 20
137.4328712907005
 42
1.0
 10
147.2929824454522
 20
137.3949924658402
 42
1.0
 10
147.3099323152396
 20
137.3674489274356
 42
1.0
 10
147.3277090079436
 20
137.3442978857747
 42
1.0
 10
147.3542190177025
 20
137.3177361995834
 42
1.0
 10
147.3880154044129
 20
137.314687290079
 42
1.0
 10
147.4111664460737
 20
137.314687290079
 42
1.0
 72
     1
 10
147.4111664460737
 20
137.314687290079
 11
149.5541880926734
 21
137.3147389665112
 72
     4
 94
        3
 73
     1
 74
     0
 95
       23
 96
       19
 40
0.0
 40
0.0
 40
0.0
 40
0.0
 40
1.0
 40
2.0
 40
3.0
 40
4.0
 40
5.0
 40
6.0
 40
7.0
 40
8.0
 40
9.0
 40
10.0
 40
11.0
 40
12.0
 40
13.0
 40
14.0
 40
15.0
 40
16.0
 40
16.0
 40
16.0
 40
16.0
 10
149.5541880926734
 20
137.3147389665112
 42
1.0
 10
149.6428131740314
 20
137.3202683447651
 42
1.0
 10
149.7191392645072
 20
137.3433677099937
 42
1.0
 10
149.789005800948
 20
137.3864141780819
 42
1.0
 10
149.8723082097814
 20
137.4441367529373
 42
1.0
 10
149.9281187566424
 20
137.4967950374293
 42
1.0
 10
149.9689948145749
 20
137.5559128759562
 42
1.0
 10
150.0188625717239
 20
137.620766798466
 42
1.0
 10
150.0571548080424
 20
137.6971962418063
 42
1.0
 10
150.085990257254
 20
137.7895420262884
 42
1.0
 10
150.1131720606326
 20
137.8764617853813
 42
1.0
 10
150.1281065495611
 20
137.9665338068431
 42
1.0
 10
150.1281065495611
 20
138.0431182794802
 42
1.0
 10
150.1281065495611
 20
138.1241986017256
 42
1.0
 10
150.1135854720908
 20
138.2136505060001
 42
1.0
 10
150.085990257254
 20
138.3017588230354
 42
1.0
 10
150.0610305404633
 20
138.3818056166351
 42
1.0
 10
150.0201544825309
 20
138.4618007338026
 42
1.0
 10
149.9639305242115
 20
138.5405556165954
 42
1.0
 97
        0
 75
     0
 76
     1
 52
0.0
 41
0.0393700787
 77
     0
 78
     1
 53
45.0
 43
0.0
 44
0.0
 45
-0.0883883476483184
 46
0.0883883476483184
 79
     0
 98
        1
 10
0.0
 20
0.0
  0
HATCH
  5
3F3
330
1F
100
AcDbEntity
  8
0
  6
Continuous
 62
   142
100
AcDbHatch
 10
0.0
 20
0.0
 30
0.0
210
0.0
220
0.0
230
1.0
  2
ANSI31
 70
     0
 71
     0
 91
        1
 92
        0
 93
       10
 72
     4
 94
        3
 73
     1
 74
     0
 95
       23
 96
       19
 40
0.0
 40
0.0
 40
0.0
 40
0.0
 40
1.0
 40
2.0
 40
3.0
 40
4.0
 40
5.0
 40
6.0
 40
7.0
 40
8.0
 40
9.0
 40
10.0
 40
11.0
 40
12.0
 40
13.0
 40
14.0
 40
15.0
 40
16.0
 40
16.0
 40
16.0
 40
16.0
 10
152.7616408913507
 20
137.3574236995735
 42
1.0
 10
152.7848952858761
 20
137.3275030452841
 42
1.0
 10
152.8172447324826
 20
137.3098297054448
 42
1.0
 10
152.8527464414581
 20
137.3076076188568
 42
1.0
 10
152.8551752337752
 20
137.30745258956
 42
1.0
 10
152.8576557025246
 20
137.3074009131277
 42
1.0
 10
152.860136171274
 20
137.3074009131277
 42
1.0
 10
152.8920722064223
 20
137.3074009131277
 42
1.0
 10
152.9225096250344
 20
137.3203200211974
 42
1.0
 10
152.9464358131795
 20
137.3442978857747
 42
1.0
 10
152.9770799375208
 20
137.3748903336837
 42
1.0
 10
152.9811623756708
 20
137.4062062516446
 42
1.0
 10
152.9811623756708
 20
137.4328712907005
 42
1.0
 10
152.9811623756708
 20
137.4446018408278
 42
1.0
 10
152.9811623756708
 20
137.4606215348342
 42
1.0
 10
152.9744961159068
 20
137.4733856136071
 42
1.0
 10
152.9670547096587
 20
137.4957615087837
 42
1.0
 10
152.9528436907821
 20
137.5099725276604
 42
1.0
 10
152.9443687558883
 20
137.5179823746636
 42
1.0
 72
     1
 10
152.9443687558883
 20
137.5179823746636
 11
152.0641640848844
 21
138.6932594739791
 72
     4
 94
        3
 73
     1
 74
     0
 95
       14
 96
       10
 40
0.0
 40
0.0
 40
0.0
 40
0.0
 40
1.0
 40
2.0
 40
3.0
 40
4.0
 40
5.0
 40
6.0
 40
7.0
 40
7.0
 40
7.0
 40
7.0
 10
152.0641640848844
 20
138.6932594739791
 42
1.0
 10
152.024218202733
 20
138.7446258476642
 42
1.0
 10
151.9791046773536
 20
138.7825046725245
 42
1.0
 10
151.9261880107001
 20
138.808911329419
 42
1.0
 10
151.8088825094274
 20
138.8676674329199
 42
1.0
 10
151.6705963766495
 20
138.8658070813579
 42
1.0
 10
151.5459011455609
 20
138.8033302747329
 42
1.0
 10
151.4802720765669
 20
138.767570183596
 42
1.0
 10
151.4333498760578
 20
138.7275726250122
 42
1.0
 10
151.4033258689038
 20
138.6825107760652
 42
1.0
 72
     1
 10
151.4033258689038
 20
138.6825107760652
 11
150.5316994856582
 21
137.5061484716718
 72
     4
 94
        3
 73
     1
 74
     0
 95
       11
 96
        7
 40
0.0
 40
0.0
 40
0.0
 40
0.0
 40
1.0
 40
2.0
 40
3.0
 40
4.0
 40
4.0
 40
4.0
 40
4.0
 10
150.5316994856582
 20
137.5061484716718
 42
1.0
 10
150.5160415266778
 20
137.4905421891236
 42
1.0
 10
150.5020372135302
 20
137.4727654964197
 42
1.0
 10
150.5020372135302
 20
137.4277553239049
 42
1.0
 10
150.5020372135302
 20
137.3898248226123
 42
1.0
 10
150.5189870833176
 20
137.36233296064
 42
1.0
 10
150.5338182193816
 20
137.3425925635095
 42
1.0
 72
     1
 10
150.5338182193816
 20
137.3425925635095
 11
150.538520774719
 21
137.3375799495785
 72
     4
 94
        3
 73
     1
 74
     0
 95
        8
 96
        4
 40
0.0
 40
0.0
 40
0.0
 40
0.0
 40
1.0
 40
1.0
 40
1.0
 40
1.0
 10
150.538520774719
 20
137.3375799495785
 42
1.0
 10
150.5903522362946
 20
137.2929831885219
 42
1.0
 10
150.6663165917443
 20
137.3009413590929
 42
1.0
 10
150.7151508202477
 20
137.3558217301729
 42
1.0
 72
     1
 10
150.7151508202477
 20
137.3558217301729
 11
151.560989910423
 21
138.4817478366622
 72
     4
 94
        3
 73
     1
 74
     0
 95
       17
 96
       13
 40
0.0
 40
0.0
 40
0.0
 40
0.0
 40
1.0
 40
2.0
 40
3.0
 40
4.0
 40
5.0
 40
6.0
 40
7.0
 40
8.0
 40
9.0
 40
10.0
 40
10.0
 40
10.0
 40
10.0
 10
151.560989910423
 20
138.4817478366622
 42
1.0
 10
151.574839947637
 20
138.5001446465535
 42
1.0
 10
151.5996963115631
 20
138.5250526869118
 42
1.0
 10
151.6277049378581
 20
138.5532163425037
 42
1.0
 10
151.6996385315902
 20
138.6161582370192
 42
1.0
 10
151.7779283264925
 20
138.6166233249098
 42
1.0
 10
151.8509988017346
 20
138.5527512546132
 42
1.0
 10
151.8702224345423
 20
138.5366798841746
 42
1.0
 10
151.8851569234709
 20
138.5206085137358
 42
1.0
 10
151.8995746480766
 20
138.50505390762
 42
1.0
 10
151.9066026428665
 20
138.497457472075
 42
1.0
 10
151.913372255495
 20
138.4902227715559
 42
1.0
 10
151.9170929586191
 20
138.4869154798901
 42
1.0
 72
     1
 10
151.9170929586191
 20
138.4869154798901
 11
152.7616408913507
 21
137.3574236995735
 97
        0
 75
     0
 76
     1
 52
0.0
 41
0.0393700787
 77
     0
 78
     1
 53
45.0
 43
0.0
 44
0.0
 45
-0.0883883476483184
 46
0.0883883476483184
 79
     0
 98
        1
 10
0.0
 20
0.0
  0
HATCH
  5
3F4
330
1F
100
AcDbEntity
  8
0
  6
Continuous
 62
   142
100
AcDbHatch
 10
0.0
 20
0.0
 30
0.0
210
0.0
220
0.0
230
1.0
  2
ANSI31
 70
     0
 71
     0
 91
        1
 92
        0
 93
       15
 72
     4
 94
        3
 73
     1
 74
     0
 95
       14
 96
       10
 40
0.0
 40
0.0
 40
0.0
 40
0.0
 40
1.0
 40
2.0
 40
3.0
 40
4.0
 40
5.0
 40
6.0
 40
7.0
 40
7.0
 40
7.0
 40
7.0
 10
156.2592051808409
 20
137.9074159683162
 42
1.0
 10
156.2393097544136
 20
137.9571286961684
 42
1.0
 10
156.2087689829368
 20
138.0021905451154
 42
1.0
 10
156.1656708384164
 20
138.0452886896359
 42
1.0
 10
156.1225726938959
 20
138.0882834812919
 42
1.0
 10
156.0775108449488
 20
138.1188759292009
 42
1.0
 10
156.0279014699612
 20
138.1387713556282
 42
1.0
 10
155.9727110402875
 20
138.160785515779
 42
1.0
 10
155.9172622284524
 20
138.1714825372606
 42
1.0
 10
155.8584544485192
 20
138.1714825372606
 42
1.0
 72
     1
 10
155.8584544485192
 20
138.1714825372606
 11
153.8648810440697
 21
138.1714825372606
 72
     4
 94
        3
 73
     1
 74
     0
 95
       17
 96
       13
 40
0.0
 40
0.0
 40
0.0
 40
0.0
 40
1.0
 40
2.0
 40
3.0
 40
4.0
 40
5.0
 40
6.0
 40
7.0
 40
8.0
 40
9.0
 40
10.0
 40
10.0
 40
10.0
 40
10.0
 10
153.8648810440697
 20
138.1714825372606
 42
1.0
 10
153.8150649633529
 20
138.1714825372606
 42
1.0
 10
153.7676776749533
 20
138.1903444350424
 42
1.0
 10
153.7334162003525
 20
138.2245025567786
 42
1.0
 10
153.6976561092156
 20
138.25628356263
 42
1.0
 10
153.6779157120852
 20
138.3020688816291
 42
1.0
 10
153.6779157120852
 20
138.3533319024496
 42
1.0
 10
153.6779157120852
 20
138.4039231296505
 42
1.0
 10
153.6981211971062
 20
138.4519305352374
 42
1.0
 10
153.734811464024
 20
138.488569125723
 42
1.0
 10
153.7676259985211
 20
138.5214353366523
 42
1.0
 10
153.8150132869207
 20
138.540297234434
 42
1.0
 10
153.8648810440697
 20
138.540297234434
 42
1.0
 72
     1
 10
153.8648810440697
 20
138.540297234434
 11
156.0619045624007
 21
138.540297234434
 72
     4
 94
        3
 73
     1
 74
     0
 95
       17
 96
       13
 40
0.0
 40
0.0
 40
0.0
 40
0.0
 40
1.0
 40
2.0
 40
3.0
 40
4.0
 40
5.0
 40
6.0
 40
7.0
 40
8.0
 40
9.0
 40
10.0
 40
10.0
 40
10.0
 40
10.0
 10
156.0619045624007
 20
138.540297234434
 42
1.0
 10
156.0997317108287
 20
138.540297234434
 42
1.0
 10
156.1272752492332
 20
138.5572471042215
 42
1.0
 10
156.1504262908941
 20
138.5750237969254
 42
1.0
 10
156.1810704152354
 20
138.6056162448344
 42
1.0
 10
156.1851528533854
 20
138.6369321627953
 42
1.0
 10
156.1851528533854
 20
138.6635972018511
 42
1.0
 10
156.1851528533854
 20
138.7014243502792
 42
1.0
 10
156.168202983598
 20
138.7289678886838
 42
1.0
 10
156.1504262908941
 20
138.7521189303446
 42
1.0
 10
156.1198338429851
 20
138.7827630546859
 42
1.0
 10
156.0885179250242
 20
138.786845492836
 42
1.0
 10
156.0619045624007
 20
138.786845492836
 42
1.0
 72
     1
 10
156.0619045624007
 20
138.786845492836
 11
153.8750613012286
 21
138.786845492836
 72
     4
 94
        3
 73
     1
 74
     0
 95
       29
 96
       25
 40
0.0
 40
0.0
 40
0.0
 40
0.0
 40
1.0
 40
2.0
 40
3.0
 40
4.0
 40
5.0
 40
6.0
 40
7.0
 40
8.0
 40
9.0
 40
10.0
 40
11.0
 40
12.0
 40
13.0
 40
14.0
 40
15.0
 40
16.0
 40
17.0
 40
18.0
 40
19.0
 40
20.0
 40
21.0
 40
22.0
 40
22.0
 40
22.0
 40
22.0
 10
153.8750613012286
 20
138.786845492836
 42
1.0
 10
153.8149616104884
 20
138.786845492836
 42
1.0
 10
153.7592544164919
 20
138.7756833834638
 42
1.0
 10
153.7095416886398
 20
138.7536175468807
 42
1.0
 10
153.658795432142
 20
138.7310349459749
 42
1.0
 10
153.6102712622323
 20
138.6980137057488
 42
1.0
 10
153.5729092016948
 20
138.660599968779
 42
1.0
 10
153.5299144100388
 20
138.6176568535553
 42
1.0
 10
153.4993219621298
 20
138.572543328176
 42
1.0
 10
153.479891623593
 20
138.5239158054017
 42
1.0
 10
153.4577741105777
 20
138.4743064304141
 42
1.0
 10
153.4466120012055
 20
138.4186509128498
 42
1.0
 10
153.4466120012055
 20
138.3584478692451
 42
1.0
 10
153.4466120012055
 20
138.2982965020727
 42
1.0
 10
153.4577741105777
 20
138.2425893080762
 42
1.0
 10
153.479891623593
 20
138.1929282566563
 42
1.0
 10
153.5024742244988
 20
138.1421820001586
 42
1.0
 10
153.535495464725
 20
138.0936578302488
 42
1.0
 10
153.5729092016948
 20
138.0562957697113
 42
1.0
 10
153.6159039933507
 20
138.0132493016231
 42
1.0
 10
153.6609658422977
 20
137.9827085301464
 42
1.0
 10
153.7095416886398
 20
137.9632781916095
 42
1.0
 10
153.7591510636273
 20
137.9412123550266
 42
1.0
 10
153.8148065811916
 20
137.9300502456543
 42
1.0
 10
153.8750613012286
 20
137.9300502456543
 42
1.0
 72
     1
 10
153.8750613012286
 20
137.9300502456543
 11
155.878814962837
 21
137.9300502456543
 72
     4
 94
        3
 73
     1
 74
     0
 95
       17
 96
       13
 40
0.0
 40
0.0
 40
0.0
 40
0.0
 40
1.0
 40
2.0
 40
3.0
 40
4.0
 40
5.0
 40
6.0
 40
7.0
 40
8.0
 40
9.0
 40
10.0
 40
10.0
 40
10.0
 40
10.0
 10
155.878814962837
 20
137.9300502456543
 42
1.0
 10
155.9286310435537
 20
137.9300502456543
 42
1.0
 10
155.9760183319533
 20
137.9111883478726
 42
1.0
 10
156.0088845428826
 20
137.8783221369433
 42
1.0
 10
156.0444896047227
 20
137.842665398671
 42
1.0
 10
156.0657802948215
 20
137.7939861994644
 42
1.0
 10
156.0657802948215
 20
137.7481492040331
 42
1.0
 10
156.0657802948215
 20
137.6968861832126
 42
1.0
 10
156.0460398976911
 20
137.6511008642136
 42
1.0
 10
156.0089362193149
 20
137.6180279475552
 42
1.0
 10
155.9745713918495
 20
137.5837147965221
 42
1.0
 10
155.9325067759746
 20
137.5662998388442
 42
1.0
 10
155.8838792532003
 20
137.5662998388442
 42
1.0
 72
     1
 10
155.8838792532003
 20
137.5662998388442
 11
153.6817914445061
 21
137.5662998388442
 72
     4
 94
        3
 73
     1
 74
     0
 95
       17
 96
       13
 40
0.0
 40
0.0
 40
0.0
 40
0.0
 40
1.0
 40
2.0
 40
3.0
 40
4.0
 40
5.0
 40
6.0
 40
7.0
 40
8.0
 40
9.0
 40
10.0
 40
10.0
 40
10.0
 40
10.0
 10
153.6817914445061
 20
137.5662998388442
 42
1.0
 10
153.6438609432135
 20
137.5662998388442
 42
1.0
 10
153.6163690812412
 20
137.5493499690568
 42
1.0
 10
153.5932697160126
 20
137.5315732763529
 42
1.0
 10
153.5626255916713
 20
137.5009808284439
 42
1.0
 10
153.5585431535213
 20
137.469664910483
 42
1.0
 10
153.5585431535213
 20
137.4429998714271
 42
1.0
 10
153.5585431535213
 20
137.4050176937023
 42
1.0
 10
153.5754930233087
 20
137.3775258317299
 42
1.0
 10
153.5932180395803
 20
137.3544781429336
 42
1.0
 10
153.623758811057
 20
137.3238340185923
 42
1.0
 10
153.6551264054502
 20
137.3197515804423
 42
1.0
 10
153.6817914445061
 20
137.3197515804423
 42
1.0
 72
     1
 10
153.6817914445061
 20
137.3197515804423
 11
155.8267251191001
 21
137.3197515804423
 72
     1
 10
155.8267251191001
 20
137.3197515804423
 11
155.8267251191001
 21
137.314687290079
 72
     1
 10
155.8267251191001
 20
137.314687290079
 11
155.8584544485192
 21
137.314687290079
 72
     4
 94
        3
 73
     1
 74
     0
 95
       20
 96
       16
 40
0.0
 40
0.0
 40
0.0
 40
0.0
 40
1.0
 40
2.0
 40
3.0
 40
4.0
 40
5.0
 40
6.0
 40
7.0
 40
8.0
 40
9.0
 40
10.0
 40
11.0
 40
12.0
 40
13.0
 40
13.0
 40
13.0
 40
13.0
 10
155.8584544485192
 20
137.314687290079
 42
1.0
 10
155.9202594615246
 20
137.314687290079
 42
1.0
 10
155.9808242401553
 20
137.3264695166386
 42
1.0
 10
156.0279014699612
 20
137.3474501481437
 42
1.0
 10
156.0840737518482
 20
137.369929396185
 42
1.0
 10
156.1278436899883
 20
137.3979896989123
 42
1.0
 10
156.1656708384164
 20
137.4358685237727
 42
1.0
 10
156.2087689829368
 20
137.4789149918608
 42
1.0
 10
156.2393614308458
 20
137.5239768408079
 42
1.0
 10
156.2586884165181
 20
137.5725010107177
 42
1.0
 10
156.2798757537524
 20
137.6200950048464
 42
1.0
 10
156.2919680389056
 20
137.6804014013157
 42
1.0
 10
156.2919680389056
 20
137.7379689468742
 42
1.0
 10
156.2919680389056
 20
137.796880079672
 42
1.0
 10
156.2812710174239
 20
137.8522772150748
 42
1.0
 10
156.2592051808409
 20
137.9074159683162
 42
1.0
 97
        0
 75
     0
 76
     1
 52
0.0
 41
0.0393700787
 77
     0
 78
     1
 53
45.0
 43
0.0
 44
0.0
 45
-0.0883883476483184
 46
0.0883883476483184
 79
     0
 98
        1
 10
0.0
 20
0.0
  0
MTEXT
  5
3F5
330
1F
100
AcDbEntity
  8
0
  6
Continuous
 62
     7
370
     0
100
AcDbMText
 10
139.6307307628
 20
166.9990825822
 30
0.0
 40
6.8791666667
 41
0.0
 71
     1
 72
     1
  1
A\M+196CA
  7
SLDTEXTSTYLE1
 73
     1
 44
1.0
  0
MTEXT
  5
3F6
330
1F
100
AcDbEntity
  8
0
  6
Continuous
 62
     7
370
     0
100
AcDbMText
 10
139.6307307628
 20
13.768579103
 30
0.0
 40
6.8791666667
 41
0.0
 71
     1
 72
     1
  1
B\M+196CA
  7
SLDTEXTSTYLE1
 73
     1
 44
1.0
  0
MTEXT
  5
3F7
330
1F
100
AcDbEntity
  8
0
  6
Continuous
 62
     7
370
     0
100
AcDbMText
 10
88.3187327366
 20
51.0388485529
 30
0.0
 40
2.5
 41
0.0
 71
     1
 72
     1
  1
1.7\M+18D45\M+18D55M2.0
  7
SLDTEXTSTYLE1
 73
     1
 44
1.0
  0
INSERT
  5
3FF
330
1F
100
AcDbEntity
  8
0
  6
Continuous
 62
     7
370
     0
100
AcDbBlockReference
  2
SW_NOTE_1
 10
5.1286543512
 20
195.1535245415
 30
0.0
  0
ENDSEC
  0
SECTION
  2
OBJECTS
  0
DICTIONARY
  5
C
330
0
100
AcDbDictionary
281
     1
  3
ACAD_GROUP
350
D
  3
ACAD_LAYOUT
350
1A
  3
ACAD_MLINESTYLE
350
17
  3
ACAD_PLOTSETTINGS
350
19
  3
ACAD_PLOTSTYLENAME
350
E
  3
ACAD_SCALELIST
350
47
  0
DICTIONARY
  5
D
102
{ACAD_REACTORS
330
C
102
}
330
C
100
AcDbDictionary
281
     1
  0
DICTIONARY
  5
1A
102
{ACAD_REACTORS
330
C
102
}
330
C
100
AcDbDictionary
281
     1
  3
Layout1
350
1E
  3
Layout2
350
26
  3
Model
350
22
  0
DICTIONARY
  5
17
102
{ACAD_REACTORS
330
C
102
}
330
C
100
AcDbDictionary
281
     1
  3
Standard
350
18
  0
DICTIONARY
  5
19
102
{ACAD_REACTORS
330
C
102
}
330
C
100
AcDbDictionary
281
     1
  0
ACDBDICTIONARYWDFLT
  5
E
102
{ACAD_REACTORS
330
C
102
}
330
C
100
AcDbDictionary
281
     1
  3
Normal
350
F
100
AcDbDictionaryWithDefault
340
F
  0
DICTIONARY
  5
47
102
{ACAD_REACTORS
330
C
102
}
330
C
100
AcDbDictionary
281
     1
  3
A0
350
48
  3
A1
350
49
  3
A2
350
4A
  3
A3
350
4B
  3
A4
350
4C
  3
A5
350
4D
  3
A6
350
4E
  3
A7
350
4F
  3
A8
350
50
  3
A9
350
51
  3
B0
350
52
  3
B1
350
53
  3
B2
350
54
  3
B3
350
55
  3
B4
350
56
  3
B5
350
57
  3
B6
350
58
  3
B7
350
59
  3
B8
350
5A
  3
B9
350
5B
  3
C0
350
5C
  3
C1
350
5D
  3
C2
350
5E
  3
C3
350
5F
  3
C4
350
60
  3
C5
350
61
  3
C6
350
62
  3
C7
350
63
  3
C8
350
64
  3
C9
350
65
  3
D0
350
66
  3
D1
350
67
  3
D2
350
68
  0
LAYOUT
  5
1E
102
{ACAD_REACTORS
330
1A
102
}
330
1A
100
AcDbPlotSettings
  1

  2
none_device
  4

  6

 40
0.0
 41
0.0
 42
0.0
 43
0.0
 44
0.0
 45
0.0
 46
0.0
 47
0.0
 48
0.0
 49
0.0
140
0.0
141
0.0
142
1.0
143
1.0
 70
   688
 72
     1
 73
     0
 74
     5
  7

 75
    16
147
1.0
148
0.0
149
0.0
100
AcDbLayout
  1
Layout1
 70
     1
 71
     1
 10
0.0
 20
0.0
 11
420.0
 21
297.0
 12
0.0
 22
0.0
 32
0.0
 14
1.0000000000E+20
 24
1.0000000000E+20
 34
1.0000000000E+20
 15
-1.0000000000E+20
 25
-1.0000000000E+20
 35
-1.0000000000E+20
146
0.0
 13
0.0
 23
0.0
 33
0.0
 16
1.0
 26
0.0
 36
0.0
 17
0.0
 27
1.0
 37
0.0
 76
     0
330
1B
  0
LAYOUT
  5
26
102
{ACAD_REACTORS
330
1A
102
}
330
1A
100
AcDbPlotSettings
  1

  2
none_device
  4

  6

 40
0.0
 41
0.0
 42
0.0
 43
0.0
 44
0.0
 45
0.0
 46
0.0
 47
0.0
 48
0.0
 49
0.0
140
0.0
141
0.0
142
1.0
143
1.0
 70
   688
 72
     1
 73
     0
 74
     5
  7

 75
    16
147
1.0
148
0.0
149
0.0
100
AcDbLayout
  1
Layout2
 70
     1
 71
     2
 10
0.0
 20
0.0
 11
0.0
 21
0.0
 12
0.0
 22
0.0
 32
0.0
 14
0.0
 24
0.0
 34
0.0
 15
0.0
 25
0.0
 35
0.0
146
0.0
 13
0.0
 23
0.0
 33
0.0
 16
1.0
 26
0.0
 36
0.0
 17
0.0
 27
1.0
 37
0.0
 76
     0
330
23
  0
LAYOUT
  5
22
102
{ACAD_REACTORS
330
1A
102
}
330
1A
100
AcDbPlotSettings
  1

  2
none_device
  4
Letter_(8.50_x_11.00_Inches)
  6

 40
6.35
 41
6.35
 42
6.35000508
 43
6.35000508
 44
215.9
 45
279.4
 46
0.0
 47
0.0
 48
0.0
 49
0.0
140
0.0
141
0.0
142
1.0
143
1.0
 70
  1712
 72
     1
 73
     0
 74
     0
  7

 75
     0
147
1.0
148
0.0
149
0.0
100
AcDbLayout
  1
Model
 70
     1
 71
     0
 10
0.0
 20
0.0
 11
297.0
 21
210.0
 12
0.0
 22
0.0
 32
0.0
 14
0.0
 24
0.0
 34
0.0
 15
297.0
 25
210.0
 35
0.0
146
0.0
 13
0.0
 23
0.0
 33
0.0
 16
1.0
 26
0.0
 36
0.0
 17
0.0
 27
1.0
 37
0.0
 76
     0
330
1F
331
29
  0
MLINESTYLE
  5
18
102
{ACAD_REACTORS
330
17
102
}
330
17
100
AcDbMlineStyle
  2
Standard
 70
     0
  3

 62
   256
 51
90.0
 52
90.0
 71
     2
 49
0.5
 62
   256
  6
BYLAYER
 49
-0.5
 62
   256
  6
BYLAYER
  0
ACDBPLACEHOLDER
  5
F
102
{ACAD_REACTORS
330
E
102
}
330
E
  0
SCALE
  5
48
102
{ACAD_REACTORS
330
47
102
}
330
47
100
AcDbScale
 70
     0
300
1:1
140
1.0
141
1.0
290
     1
  0
SCALE
  5
49
102
{ACAD_REACTORS
330
47
102
}
330
47
100
AcDbScale
 70
     0
300
1:2
140
1.0
141
2.0
290
     0
  0
SCALE
  5
4A
102
{ACAD_REACTORS
330
47
102
}
330
47
100
AcDbScale
 70
     0
300
1:4
140
1.0
141
4.0
290
     0
  0
SCALE
  5
4B
102
{ACAD_REACTORS
330
47
102
}
330
47
100
AcDbScale
 70
     0
300
1:5
140
1.0
141
5.0
290
     0
  0
SCALE
  5
4C
102
{ACAD_REACTORS
330
47
102
}
330
47
100
AcDbScale
 70
     0
300
1:8
140
1.0
141
8.0
290
     0
  0
SCALE
  5
4D
102
{ACAD_REACTORS
330
47
102
}
330
47
100
AcDbScale
 70
     0
300
1:10
140
1.0
141
10.0
290
     0
  0
SCALE
  5
4E
102
{ACAD_REACTORS
330
47
102
}
330
47
100
AcDbScale
 70
     0
300
1:16
140
1.0
141
16.0
290
     0
  0
SCALE
  5
4F
102
{ACAD_REACTORS
330
47
102
}
330
47
100
AcDbScale
 70
     0
300
1:20
140
1.0
141
20.0
290
     0
  0
SCALE
  5
50
102
{ACAD_REACTORS
330
47
102
}
330
47
100
AcDbScale
 70
     0
300
1:30
140
1.0
141
30.0
290
     0
  0
SCALE
  5
51
102
{ACAD_REACTORS
330
47
102
}
330
47
100
AcDbScale
 70
     0
300
1:40
140
1.0
141
40.0
290
     0
  0
SCALE
  5
52
102
{ACAD_REACTORS
330
47
102
}
330
47
100
AcDbScale
 70
     0
300
1:50
140
1.0
141
50.0
290
     0
  0
SCALE
  5
53
102
{ACAD_REACTORS
330
47
102
}
330
47
100
AcDbScale
 70
     0
300
1:100
140
1.0
141
100.0
290
     0
  0
SCALE
  5
54
102
{ACAD_REACTORS
330
47
102
}
330
47
100
AcDbScale
 70
     0
300
2:1
140
2.0
141
1.0
290
     0
  0
SCALE
  5
55
102
{ACAD_REACTORS
330
47
102
}
330
47
100
AcDbScale
 70
     0
300
4:1
140
4.0
141
1.0
290
     0
  0
SCALE
  5
56
102
{ACAD_REACTORS
330
47
102
}
330
47
100
AcDbScale
 70
     0
300
8:1
140
8.0
141
1.0
290
     0
  0
SCALE
  5
57
102
{ACAD_REACTORS
330
47
102
}
330
47
100
AcDbScale
 70
     0
300
10:1
140
10.0
141
1.0
290
     0
  0
SCALE
  5
58
102
{ACAD_REACTORS
330
47
102
}
330
47
100
AcDbScale
 70
     0
300
100:1
140
100.0
141
1.0
290
     0
  0
SCALE
  5
59
102
{ACAD_REACTORS
330
47
102
}
330
47
100
AcDbScale
 70
     0
300
1/128" = 1'-0"
140
0.0078125
141
12.0
290
     0
  0
SCALE
  5
5A
102
{ACAD_REACTORS
330
47
102
}
330
47
100
AcDbScale
 70
     0
300
1/64" = 1'-0"
140
0.015625
141
12.0
290
     0
  0
SCALE
  5
5B
102
{ACAD_REACTORS
330
47
102
}
330
47
100
AcDbScale
 70
     0
300
1/32" = 1'-0"
140
0.03125
141
12.0
290
     0
  0
SCALE
  5
5C
102
{ACAD_REACTORS
330
47
102
}
330
47
100
AcDbScale
 70
     0
300
1/16" = 1'-0"
140
0.0625
141
12.0
290
     0
  0
SCALE
  5
5D
102
{ACAD_REACTORS
330
47
102
}
330
47
100
AcDbScale
 70
     0
300
3/32" = 1'-0"
140
0.09375
141
12.0
290
     0
  0
SCALE
  5
5E
102
{ACAD_REACTORS
330
47
102
}
330
47
100
AcDbScale
 70
     0
300
1/8" = 1'-0"
140
0.125
141
12.0
290
     0
  0
SCALE
  5
5F
102
{ACAD_REACTORS
330
47
102
}
330
47
100
AcDbScale
 70
     0
300
3/16" = 1'-0"
140
0.1875
141
12.0
290
     0
  0
SCALE
  5
60
102
{ACAD_REACTORS
330
47
102
}
330
47
100
AcDbScale
 70
     0
300
1/4" = 1'-0"
140
0.25
141
12.0
290
     0
  0
SCALE
  5
61
102
{ACAD_REACTORS
330
47
102
}
330
47
100
AcDbScale
 70
     0
300
3/8" = 1'-0"
140
0.375
141
12.0
290
     0
  0
SCALE
  5
62
102
{ACAD_REACTORS
330
47
102
}
330
47
100
AcDbScale
 70
     0
300
1/2" = 1'-0"
140
0.5
141
12.0
290
     0
  0
SCALE
  5
63
102
{ACAD_REACTORS
330
47
102
}
330
47
100
AcDbScale
 70
     0
300
3/4" = 1'-0"
140
0.75
141
12.0
290
     0
  0
SCALE
  5
64
102
{ACAD_REACTORS
330
47
102
}
330
47
100
AcDbScale
 70
     0
300
1" = 1'-0"
140
1.0
141
12.0
290
     0
  0
SCALE
  5
65
102
{ACAD_REACTORS
330
47
102
}
330
47
100
AcDbScale
 70
     0
300
1-1/2" = 1'-0"
140
1.5
141
12.0
290
     0
  0
SCALE
  5
66
102
{ACAD_REACTORS
330
47
102
}
330
47
100
AcDbScale
 70
     0
300
3" = 1'-0"
140
3.0
141
12.0
290
     0
  0
SCALE
  5
67
102
{ACAD_REACTORS
330
47
102
}
330
47
100
AcDbScale
 70
     0
300
6" = 1'-0"
140
6.0
141
12.0
290
     0
  0
SCALE
  5
68
102
{ACAD_REACTORS
330
47
102
}
330
47
100
AcDbScale
 70
     0
300
1'-0" = 1'-0"
140
12.0
141
12.0
290
     0
  0
ENDSEC
  0
EOF
